<?xml version="1.0" standalone="no"?><!DOCTYPE svg PUBLIC "-//W3C//DTD SVG 1.1//EN" "http://www.w3.org/Graphics/SVG/1.1/DTD/svg11.dtd" ><svg xmlns="http://www.w3.org/2000/svg"><metadata></metadata><defs><font id="BigruixianBlackGBV1.0" horiz-adv-x="1024"><font-face font-family="BigruixianBlackGBV1.0" font-weight="400" font-stretch="normal" units-per-em="1024" panose-1="2 1 6 4 0 0 0 0 0 0" ascent="880" descent="-204" x-height="0" bbox="-17 -139 1030 848" underline-thickness="20" underline-position="-128" unicode-range="U+0041-9f9f" /><missing-glyph horiz-adv-x="0"  /><glyph glyph-name="" unicode="A" d="M728 4 l-148 746 l-370 0 l-142 -746 l148 0 l48 252 l264 0 l50 -252 l150 0 l0 0 l0 0 ZM498 398 l-208 0 l40 212 l128 0 l40 -212 l0 0 l0 0 Z" /><glyph glyph-name="" unicode="B" d="M722 4 l0 454 l-100 0 l0 292 l-530 0 l0 -746 l630 0 l0 0 l0 0 ZM238 608 l238 0 l0 -150 l-238 0 l0 150 l0 0 l0 0 ZM238 314 l338 0 l0 -168 l-338 0 l0 168 l0 0 l0 0 Z" /><glyph glyph-name="" unicode="C" d="M674 4 l0 142 l-428 0 l0 462 l428 0 l0 142 l-582 0 l0 -746 l582 0 l0 0 l0 0 Z" /><glyph glyph-name="" unicode="D" d="M722 4 l0 576 l-142 170 l-488 0 l0 -746 l630 0 l0 0 l0 0 ZM238 608 l266 0 l72 -84 l0 -378 l-338 0 l0 462 l0 0 l0 0 Z" /><glyph glyph-name="" unicode="E" d="M132 4 l542 0 l0 142 l-428 0 l0 164 l374 0 l0 142 l-374 0 l0 156 l428 0 l0 142 l-582 0 l0 -746 l40 0 l0 0 l0 0 Z" /><glyph glyph-name="" unicode="F" d="M92 4 l154 0 l0 306 l358 0 l0 142 l-358 0 l0 156 l428 0 l0 142 l-582 0 l0 -746 l0 0 l0 0 Z" /><glyph glyph-name="" unicode="G" d="M704 4 l0 450 l-356 0 l0 -144 l202 0 l0 -164 l-304 0 l0 462 l450 0 l0 142 l-604 0 l0 -746 l612 0 l0 0 l0 0 Z" /><glyph glyph-name="" unicode="H" d="M562 4 l114 0 l0 746 l-154 0 l0 -276 l-278 0 l0 276 l-152 0 l0 -746 l152 0 l0 326 l278 0 l0 -326 l40 0 l0 0 l0 0 Z" /><glyph glyph-name="" unicode="I" d="M328 4 l0 746 l-154 0 l0 -746 l154 0 l0 0 l0 0 Z" /><glyph glyph-name="" unicode="J" d="M494 4 l0 746 l-154 0 l0 -604 l-300 0 l0 -142 l454 0 l0 0 l0 0 Z" /><glyph glyph-name="" unicode="K" d="M710 4 l-228 354 l206 392 l-170 0 l-148 -288 l-122 0 l0 288 l-156 0 l0 -746 l156 0 l0 316 l76 0 l206 -316 l180 0 l0 0 l0 0 Z" /><glyph glyph-name="" unicode="L" d="M692 4 l0 142 l-444 0 l0 604 l-156 0 l0 -746 l600 0 l0 0 l0 0 Z" /><glyph glyph-name="" unicode="M" d="M860 4 l0 746 l-136 0 l-246 -394 l-242 394 l-144 0 l0 -746 l146 0 l0 480 l240 -382 l236 382 l0 -480 l146 0 l0 0 l0 0 Z" /><glyph glyph-name="" unicode="N" d="M722 4 l0 746 l-148 0 l0 -482 l-332 482 l-150 0 l0 -746 l148 0 l0 502 l348 -502 l134 0 l0 0 l0 0 Z" /><glyph glyph-name="" unicode="O" d="M716 4 l0 746 l-624 0 l0 -746 l624 0 l0 0 l0 0 ZM564 146 l-320 0 l0 462 l320 0 l0 -462 l0 0 l0 0 Z" /><glyph glyph-name="" unicode="P" d="M246 276 l452 0 l0 474 l-606 0 l0 -746 l154 0 l0 272 l0 0 l0 0 ZM246 420 l0 188 l298 0 l0 -188 l-298 0 l0 0 l0 0 Z" /><glyph glyph-name="" unicode="Q" d="M92 4 l284 0 l30 -91 l160 0 l-28 91 l178 0 l0 746 l-624 0 l0 -746 l0 0 l0 0 ZM564 146 l-320 0 l0 462 l320 0 l0 -462 l0 0 l0 0 Z" /><glyph glyph-name="" unicode="R" d="M750 4 l-196 296 l154 0 l0 450 l-616 0 l0 -746 l154 0 l0 296 l120 0 l202 -296 l182 0 l0 0 l0 0 ZM246 444 l0 164 l308 0 l0 -164 l-308 0 l0 0 l0 0 Z" /><glyph glyph-name="" unicode="S" d="M704 4 l0 452 l-458 0 l0 152 l454 0 l0 142 l-608 0 l0 -438 l458 0 l0 -166 l-458 0 l0 -142 l612 0 l0 0 l0 0 Z" /><glyph glyph-name="" unicode="T" d="M678 608 l0 142 l-624 0 l0 -142 l234 0 l0 -604 l152 0 l0 604 l238 0 l0 0 l0 0 Z" /><glyph glyph-name="" unicode="U" d="M722 4 l0 746 l-154 0 l0 -604 l-322 0 l0 604 l-154 0 l0 -746 l630 0 l0 0 l0 0 Z" /><glyph glyph-name="" unicode="V" d="M736 750 l-164 0 l-180 -516 l-178 516 l-164 0 l260 -746 l156 0 l270 746 l0 0 l0 0 Z" /><glyph glyph-name="" unicode="W" d="M786 4 l0 746 l-146 0 l0 -604 l-128 0 l0 604 l-146 0 l0 -604 l-128 0 l0 604 l-146 0 l0 -746 l694 0 l0 0 l0 0 Z" /><glyph glyph-name="" unicode="X" d="M720 750 l-178 0 l-158 -242 l-160 242 l-184 0 l250 -372 l-250 -374 l174 0 l166 242 l160 -242 l184 0 l-248 376 l244 370 l0 0 l0 0 Z" /><glyph glyph-name="" unicode="Y" d="M472 286 l272 464 l-174 0 l-172 -292 l-170 292 l-182 0 l270 -470 l0 -276 l156 0 l0 282 l0 0 l0 0 Z" /><glyph glyph-name="" unicode="Z" d="M694 4 l0 142 l-388 0 l394 604 l-624 0 l0 -142 l354 0 l-390 -604 l654 0 l0 0 l0 0 Z" /><glyph glyph-name="" unicode="a" d="M114 4 l468 0 l0 544 l-438 0 l0 -144 l284 0 l0 -56 l-354 0 l0 -344 l40 0 l0 0 l0 0 ZM226 204 l202 0 l0 -58 l-202 0 l0 58 l0 0 l0 0 Z" /><glyph glyph-name="" unicode="b" d="M592 4 l0 544 l-346 0 l0 114 l-154 0 l0 -658 l500 0 l0 0 l0 0 ZM246 404 l192 0 l0 -256 l-192 0 l0 256 l0 0 l0 0 Z" /><glyph glyph-name="" unicode="c" d="M602 4 l0 144 l-362 0 l0 256 l362 0 l0 144 l-510 0 l0 -544 l510 0 l0 0 l0 0 Z" /><glyph glyph-name="" unicode="d" d="M602 4 l0 650 l-152 0 l0 -106 l-358 0 l0 -544 l510 0 l0 0 l0 0 ZM436 404 l14 0 l0 -256 l-204 0 l0 256 l190 0 l0 0 l0 0 Z" /><glyph glyph-name="" unicode="e" d="M132 4 l488 0 l0 144 l-374 0 l0 68 l374 0 l0 332 l-528 0 l0 -544 l40 0 l0 0 l0 0 ZM260 354 l-14 0 l0 54 l222 0 l0 -54 l-208 0 l0 0 l0 0 Z" /><glyph glyph-name="" unicode="f" d="M306 518 l156 0 l0 142 l-312 0 l0 -202 l-104 0 l0 -144 l104 0 l0 -310 l156 0 l0 310 l156 0 l0 144 l-156 0 l0 60 l0 0 l0 0 Z" /><glyph glyph-name="" unicode="g" d="M620 -87 l0 631 l-528 0 l0 -412 l376 0 l0 -78 l-376 0 l0 -141 l528 0 l0 0 l0 0 ZM468 276 l-222 0 l0 124 l222 0 l0 -124 l0 0 l0 0 Z" /><glyph glyph-name="" unicode="h" d="M600 4 l0 540 l-358 0 l0 116 l-150 0 l0 -656 l150 0 l0 396 l206 0 l0 -396 l152 0 l0 0 l0 0 Z" /><glyph glyph-name="" unicode="i" d="M74 548 l0 -144 l74 0 l0 -400 l154 0 l0 544 l-228 0 l0 0 l0 0 ZM302 628 l0 154 l-154 0 l0 -154 l154 0 l0 0 l0 0 Z" /><glyph glyph-name="" unicode="j" d="M306 20 l0 528 l-154 0 l0 -492 l-130 -195 l182 0 l102 159 l0 0 l0 0 ZM306 628 l0 152 l-154 0 l0 -152 l154 0 l0 0 l0 0 Z" /><glyph glyph-name="" unicode="k" d="M638 4 l-218 290 l200 254 l-182 0 l-148 -178 l-44 0 l0 284 l-154 0 l0 -650 l154 0 l0 222 l38 0 l166 -222 l188 0 l0 0 l0 0 Z" /><glyph glyph-name="" unicode="l" d="M256 4 l0 674 l-152 0 l0 -674 l152 0 l0 0 l0 0 Z" /><glyph glyph-name="" unicode="m" d="M780 4 l0 544 l-688 0 l0 -544 l148 0 l0 400 l122 0 l0 -400 l148 0 l0 400 l122 0 l0 -400 l148 0 l0 0 l0 0 Z" /><glyph glyph-name="" unicode="n" d="M592 4 l0 544 l-500 0 l0 -544 l148 0 l0 400 l204 0 l0 -400 l148 0 l0 0 l0 0 Z" /><glyph glyph-name="" unicode="o" d="M602 4 l0 544 l-510 0 l0 -544 l510 0 l0 0 l0 0 ZM244 148 l0 256 l206 0 l0 -256 l-206 0 l0 0 l0 0 Z" /><glyph glyph-name="" unicode="p" d="M620 4 l0 544 l-528 0 l0 -647 l154 0 l0 103 l374 0 l0 0 l0 0 ZM246 148 l0 256 l222 0 l0 -256 l-222 0 l0 0 l0 0 Z" /><glyph glyph-name="" unicode="q" d="M620 -99 l0 647 l-528 0 l0 -544 l376 0 l0 -103 l152 0 l0 0 l0 0 ZM468 148 l-222 0 l0 256 l222 0 l0 -256 l0 0 l0 0 Z" /><glyph glyph-name="" unicode="r" d="M468 404 l0 144 l-376 0 l0 -544 l154 0 l0 400 l222 0 l0 0 l0 0 Z" /><glyph glyph-name="" unicode="s" d="M618 4 l0 348 l-372 0 l0 52 l368 0 l0 144 l-522 0 l0 -340 l372 0 l0 -62 l-372 0 l0 -142 l526 0 l0 0 l0 0 Z" /><glyph glyph-name="" unicode="t" d="M264 548 l0 114 l-152 0 l0 -114 l-74 0 l0 -144 l74 0 l0 -400 l340 0 l0 144 l-188 0 l0 256 l192 0 l0 144 l-192 0 l0 0 l0 0 Z" /><glyph glyph-name="" unicode="u" d="M606 4 l0 544 l-154 0 l0 -402 l-206 0 l0 402 l-154 0 l0 -544 l514 0 l0 0 l0 0 Z" /><glyph glyph-name="" unicode="v" d="M622 548 l-160 0 l-128 -326 l-120 326 l-164 0 l214 -544 l142 0 l216 544 l0 0 l0 0 Z" /><glyph glyph-name="" unicode="w" d="M742 4 l0 544 l-148 0 l0 -400 l-104 0 l0 400 l-148 0 l0 -400 l-104 0 l0 400 l-148 0 l0 -544 l652 0 l0 0 l0 0 Z" /><glyph glyph-name="" unicode="x" d="M666 4 l-210 260 l206 284 l-178 0 l-124 -162 l-126 162 l-184 0 l216 -278 l-218 -266 l186 0 l124 148 l122 -148 l186 0 l0 0 l0 0 Z" /><glyph glyph-name="" unicode="y" d="M624 -89 l0 625 l-154 0 l0 -256 l-224 0 l0 256 l-154 0 l0 -398 l378 0 l0 -84 l-378 0 l0 -143 l532 0 l0 0 l0 0 Z" /><glyph glyph-name="" unicode="z" d="M614 4 l0 144 l-286 0 l308 400 l-544 0 l0 -144 l250 0 l-312 -400 l584 0 l0 0 l0 0 Z" /><glyph glyph-name="" unicode="&#x554a;" d="M312 -67 l104 0 l0 721 l50 0 l-38 -248 l32 0 l0 -260 l-24 0 l0 -136 l134 0 l0 472 l-18 0 l42 308 l-282 0 l0 -857 l0 0 l0 0 ZM64 790 l0 -811 l218 0 l0 811 l-218 0 l0 0 l0 0 ZM720 -67 l244 0 l0 721 l28 0 l0 136 l-382 0 l0 -136 l228 0 l0 -588 l-118 0 l0 -133 l0 0 l0 0 ZM808 616 l-206 0 l0 -512 l206 0 l0 512 l0 0 l0 0 ZM158 654 l30 0 l0 -544 l-30 0 l0 544 l0 0 l0 0 ZM690 500 l30 0 l0 -272 l-30 0 l0 272 l0 0 l0 0 Z" /><glyph glyph-name="" unicode="&#x963f;" d="M210 -67 l0 721 l60 0 l-50 -240 l46 0 l0 -300 l-36 0 l0 -135 l178 0 l0 511 l-28 0 l62 300 l-378 0 l0 -857 l146 0 l0 0 l0 0 ZM448 610 l0 -504 l330 0 l0 504 l-330 0 l0 0 l0 0 ZM658 -67 l300 0 l0 717 l24 0 l0 140 l-534 0 l0 -140 l370 0 l0 -584 l-160 0 l0 -133 l0 0 l0 0 ZM584 232 l0 252 l58 0 l0 -252 l-58 0 l0 0 l0 0 Z" /><glyph glyph-name="" unicode="&#x57c3;" d="M42 -53 l296 103 l0 142 l-82 -28 l0 300 l70 0 l0 136 l-70 0 l0 206 l-148 0 l0 -206 l-66 0 l0 -136 l66 0 l0 -350 l-66 -24 l0 -143 l0 0 l0 0 ZM474 346 l22 58 l92 0 l0 -86 l-236 0 l0 -132 l198 0 l-232 -253 l182 0 l158 167 l152 -167 l188 0 l-230 253 l200 0 l0 132 l-232 0 l0 86 l220 0 l0 132 l-420 0 l12 28 l-144 0 l-78 -218 l148 0 l0 0 l0 0 ZM982 590 l-70 188 l-160 0 l24 -56 l-208 0 l44 84 l-162 0 l-118 -216 l650 0 l0 0 l0 0 Z" /><glyph glyph-name="" unicode="&#x6328;" d="M500 342 l18 62 l88 0 l0 -86 l-232 0 l0 -132 l194 0 l-228 -253 l180 0 l152 169 l154 -169 l188 0 l-228 253 l184 0 l0 132 l-218 0 l0 86 l206 0 l0 132 l-404 0 l10 30 l-146 0 l-66 -224 l148 0 l0 0 l0 0 ZM266 -67 l0 317 l72 28 l0 150 l-72 -28 l0 126 l72 0 l0 136 l-72 0 l0 144 l-146 0 l0 -144 l-76 0 l0 -136 l76 0 l0 -176 l-78 -30 l0 -150 l78 30 l0 -134 l-54 0 l0 -133 l200 0 l0 0 l0 0 ZM984 590 l-70 188 l-156 0 l24 -56 l-206 0 l48 84 l-164 0 l-120 -216 l644 0 l0 0 l0 0 Z" /><glyph glyph-name="" unicode="&#x54ce;" d="M446 372 l162 -186 l-236 -253 l176 0 l148 161 l146 -161 l174 0 l-226 255 l152 180 l0 158 l-146 0 l0 -118 l-98 -116 l-104 118 l0 116 l-148 0 l0 -154 l0 0 l0 0 ZM654 616 l96 0 l0 -60 l148 0 l0 60 l86 0 l0 136 l-86 0 l0 54 l-148 0 l0 -54 l-96 0 l0 54 l-148 0 l0 -54 l-90 0 l0 -136 l90 0 l0 -60 l148 0 l0 60 l0 0 l0 0 ZM68 -21 l322 0 l0 803 l-322 0 l0 -803 l0 0 l0 0 ZM210 122 l0 524 l36 0 l0 -524 l-36 0 l0 0 l0 0 Z" /><glyph glyph-name="" unicode="&#x5509;" d="M68 -21 l316 0 l0 803 l-316 0 l0 -803 l0 0 l0 0 ZM208 122 l0 524 l36 0 l0 -524 l-36 0 l0 0 l0 0 ZM546 344 l18 62 l60 0 l0 -88 l-218 0 l0 -132 l188 0 l-204 -253 l174 0 l132 157 l128 -157 l178 0 l-204 253 l172 0 l0 132 l-198 0 l0 88 l184 0 l0 132 l-366 0 l10 36 l-148 0 l-56 -230 l150 0 l0 0 l0 0 ZM976 598 l-70 180 l-158 0 l20 -48 l-138 0 l48 76 l-164 0 l-124 -208 l586 0 l0 0 l0 0 Z" /><glyph glyph-name="" unicode="&#x54c0;" d="M934 594 l-848 0 l0 -324 l100 0 l-156 -132 l148 0 l0 -80 l-84 -8 l0 -127 l452 32 l0 129 l-216 -16 l0 126 l-36 0 l94 76 l546 0 l0 324 l0 0 l0 0 ZM974 770 l-384 0 l-16 44 l-158 0 l16 -44 l-380 0 l0 -136 l922 0 l0 136 l0 0 l0 0 ZM234 458 l552 0 l0 -56 l-552 0 l0 56 l0 0 l0 0 ZM724 180 l-194 76 l0 -150 l448 -179 l0 141 l-124 44 l90 126 l-180 0 l-40 -58 l0 0 l0 0 Z" /><glyph glyph-name="" unicode="&#x764c;" d="M24 146 l130 96 l0 -106 l-98 -203 l156 0 l86 167 l0 554 l686 0 l0 128 l-332 0 l-12 32 l-154 0 l12 -32 l-344 0 l0 -368 l-130 -92 l0 -176 l0 0 l0 0 ZM354 400 l588 0 l0 224 l-588 0 l0 -224 l0 0 l0 0 ZM484 488 l0 44 l324 0 l0 -44 l-324 0 l0 0 l0 0 ZM956 370 l-288 0 l0 -212 l288 0 l0 212 l0 0 l0 0 ZM782 286 l60 0 l0 -44 l-60 0 l0 44 l0 0 l0 0 ZM448 286 l60 0 l0 -44 l-60 0 l0 44 l0 0 l0 0 ZM622 158 l0 212 l-288 0 l0 -212 l288 0 l0 0 l0 0 ZM586 52 l-118 0 l0 52 l-138 0 l0 -165 l632 0 l0 165 l-138 0 l0 -52 l-104 0 l0 74 l-134 0 l0 -74 l0 0 l0 0 ZM8 662 l34 -220 l110 0 l-34 220 l-110 0 l0 0 l0 0 Z" /><glyph glyph-name="" unicode="&#x853c;" d="M952 346 l0 300 l-640 0 l0 -300 l640 0 l0 0 l0 0 ZM442 32 l0 106 l-134 0 l0 -197 l404 0 l0 91 l-270 0 l0 0 l0 0 ZM300 688 l0 -22 l130 0 l0 22 l192 0 l0 -22 l134 0 l0 22 l228 0 l0 102 l-228 0 l0 24 l-134 0 l0 -24 l-192 0 l0 24 l-130 0 l0 -24 l-240 0 l0 -102 l240 0 l0 0 l0 0 ZM236 134 l0 334 l-184 0 l0 -122 l44 0 l0 -268 l-28 -18 l0 -139 l216 97 l0 142 l-48 -26 l0 0 l0 0 ZM472 136 l0 -96 l164 42 l152 -42 l0 98 l-86 18 l0 36 l-136 0 l0 -36 l-94 -20 l0 0 l0 0 ZM280 452 l0 134 l-180 92 l0 -138 l180 -88 l0 0 l0 0 ZM452 530 l0 30 l360 0 l0 -30 l-360 0 l0 0 l0 0 ZM812 430 l-360 0 l0 30 l360 0 l0 -30 l0 0 l0 0 ZM418 208 l412 0 l-4 -176 l-72 0 l0 -99 l202 0 l12 375 l-506 0 l10 20 l-144 0 l-74 -158 l54 0 l88 0 l22 38 l0 0 l0 0 Z" /><glyph glyph-name="" unicode="&#x77ee;" d="M384 -65 l0 191 l-104 80 l22 76 l90 0 l0 136 l-66 0 l0 220 l60 0 l0 136 l-194 0 l2 32 l-122 0 l-36 -352 l124 0 l18 184 l10 0 l0 -220 l-140 0 l0 -136 l112 0 l-110 -349 l136 0 l52 139 l146 -137 l0 0 l0 0 ZM970 644 l-216 0 l0 38 l204 4 l0 118 l-528 -12 l0 -120 l192 4 l0 -32 l-216 0 l0 -120 l86 0 l-92 -144 l144 0 l78 140 l0 -146 l132 0 l0 146 l68 -140 l144 0 l-78 144 l82 0 l0 120 l0 0 l0 0 ZM650 322 l16 34 l-140 0 l-14 -34 l-94 0 l0 -128 l46 0 l-50 -94 l96 -24 l-88 -28 l0 -127 l272 89 l276 -89 l0 123 l-104 34 l80 22 l0 94 l32 0 l0 128 l-328 0 l0 0 l0 0 ZM806 180 l-108 -40 l-98 30 l12 24 l194 0 l0 -14 l0 0 l0 0 Z" /><glyph glyph-name="" unicode="&#x827e;" d="M616 806 l0 -50 l-204 0 l0 50 l-148 0 l0 -50 l-204 0 l0 -132 l204 0 l0 -56 l148 0 l0 56 l204 0 l0 -56 l148 0 l0 56 l196 0 l0 132 l-196 0 l0 50 l-148 0 l0 0 l0 0 ZM748 536 l0 -106 l-236 -128 l-232 132 l0 102 l-148 0 l0 -184 l238 -132 l-298 -154 l0 -151 l440 223 l436 -227 l0 155 l-298 154 l246 132 l0 184 l-148 0 l0 0 l0 0 Z" /><glyph glyph-name="" unicode="&#x788d;" d="M438 66 l62 -133 l156 0 l-62 133 l-156 0 l0 0 l0 0 ZM574 676 l242 0 l0 -32 l-242 0 l0 32 l0 0 l0 0 ZM816 514 l-242 0 l0 32 l242 0 l0 -32 l0 0 l0 0 ZM408 98 l366 0 l0 -32 l-90 0 l0 -133 l238 0 l0 165 l66 0 l0 126 l-66 0 l0 30 l42 0 l0 122 l-538 0 l0 -122 l348 0 l0 -30 l-366 0 l0 -126 l0 0 l0 0 ZM964 790 l-538 0 l0 -384 l538 0 l0 384 l0 0 l0 0 ZM234 526 l54 128 l106 0 l0 136 l-356 0 l0 -136 l98 0 l-137 -336 l67 0 l0 -377 l312 0 l0 585 l-144 0 l0 0 l0 0 ZM206 390 l32 0 l0 -316 l-32 0 l0 316 l0 0 l0 0 Z" /><glyph glyph-name="" unicode="&#x7231;" d="M68 40 l0 -121 l454 109 l450 -105 l0 123 l-226 48 l202 64 l0 146 l-640 0 l18 30 l640 0 l0 110 l-584 0 l22 38 l-150 0 l-20 -38 l-176 0 l0 -110 l120 0 l-128 -246 l150 0 l54 108 l428 0 l-152 -44 l-176 44 l0 -84 l-286 -72 l0 0 l0 0 ZM978 612 l-78 0 l44 60 l-152 0 l-48 -60 l-156 0 l-28 50 l-152 0 l28 -50 l-154 0 l-32 46 l-156 0 l32 -46 l-80 0 l0 -140 l146 0 l0 34 l644 0 l0 -34 l142 0 l0 140 l0 0 l0 0 ZM68 686 l892 12 l0 104 l-892 -12 l0 -104 l0 0 l0 0 ZM972 -73 l0 123 l0 -61 l0 -62 l0 0 l0 0 Z" /><glyph glyph-name="" unicode="&#x9698;" d="M990 -67 l0 125 l-28 0 l0 248 l-562 0 l0 -248 l-30 0 l0 -125 l620 0 l0 0 l0 0 ZM184 -67 l0 733 l52 0 l-48 -236 l38 0 l0 -322 l-22 0 l0 -129 l136 0 l0 517 l-20 0 l60 296 l-318 0 l0 -859 l122 0 l0 0 l0 0 ZM382 510 l602 0 l0 128 l-602 0 l0 -128 l0 0 l0 0 ZM546 330 l102 150 l-160 0 l-100 -150 l158 0 l0 0 l0 0 ZM836 330 l158 0 l-102 150 l-162 0 l106 -150 l0 0 l0 0 ZM400 798 l78 -130 l160 0 l-80 130 l-158 0 l0 0 l0 0 ZM694 178 l0 -120 l-30 0 l0 120 l30 0 l0 0 l0 0 ZM548 178 l0 -120 l-32 0 l0 120 l32 0 l0 0 l0 0 ZM844 178 l0 -120 l-32 0 l0 120 l32 0 l0 0 l0 0 ZM962 798 l-158 0 l-80 -130 l160 0 l78 130 l0 0 l0 0 Z" /><glyph glyph-name="" unicode="&#x978d;" d="M584 500 l-56 0 l0 -126 l40 0 l-30 -196 l92 -58 l-98 -60 l0 -147 l216 135 l220 -135 l0 153 l-100 58 l68 48 l0 202 l36 0 l0 126 l-254 0 l8 52 l-134 0 l-8 -52 l0 0 l0 0 ZM656 806 l12 -44 l-138 0 l0 -180 l130 0 l0 54 l172 0 l0 -54 l134 0 l0 180 l-148 0 l-12 44 l-150 0 l0 0 l0 0 ZM748 200 l-66 38 l22 136 l102 0 l0 -134 l-58 -40 l0 0 l0 0 ZM462 806 l-134 0 l0 -44 l-96 0 l0 44 l-134 0 l0 -44 l-54 0 l0 -130 l54 0 l0 -144 l118 0 l0 -30 l-142 0 l0 -310 l142 0 l0 -34 l-160 0 l0 -129 l160 0 l0 -52 l136 0 l0 52 l148 0 l0 129 l-148 0 l0 34 l142 0 l0 310 l-142 0 l0 30 l110 0 l0 144 l38 0 l0 130 l-38 0 l0 44 l0 0 l0 0 ZM384 334 l0 -60 l-32 0 l0 60 l32 0 l0 0 l0 0 ZM184 274 l0 60 l32 0 l0 -60 l-32 0 l0 0 l0 0 ZM328 600 l-96 0 l0 32 l96 0 l0 -32 l0 0 l0 0 Z" /><glyph glyph-name="" unicode="&#x6c28;" d="M234 694 l724 0 l0 92 l-696 0 l8 32 l-132 0 l-78 -252 l136 0 l38 128 l0 0 l0 0 ZM82 238 l0 -94 l68 0 l-34 -80 l100 -18 l-134 -22 l0 -95 l354 66 l344 -68 l0 91 l-148 28 l104 22 l0 76 l44 0 l0 94 l-468 0 l14 28 l-120 0 l-14 -28 l-110 0 l0 0 l0 0 ZM362 392 l-284 0 l0 -118 l124 0 l0 28 l452 0 l0 -28 l124 0 l0 118 l-286 0 l-8 26 l-130 0 l8 -26 l0 0 l0 0 ZM432 90 l-158 38 l8 16 l324 0 l0 -10 l-174 -44 l0 0 l0 0 ZM910 570 l0 92 l-668 0 l0 -92 l668 0 l0 0 l0 0 ZM70 444 l758 0 l-20 -511 l184 0 l0 113 l-58 0 l20 490 l-884 0 l0 -92 l0 0 l0 0 Z" /><glyph glyph-name="" unicode="&#x5b89;" d="M52 502 l0 -136 l102 0 l-70 -156 l210 -74 l-226 -76 l0 -141 l442 143 l450 -137 l0 139 l-244 78 l192 70 l0 154 l60 0 l0 136 l-594 0 l32 86 l-164 0 l-34 -86 l-156 0 l0 0 l0 0 ZM414 808 l12 -48 l-378 0 l0 -216 l148 0 l0 84 l626 0 l0 -84 l148 0 l0 216 l-388 0 l-12 48 l-156 0 l0 0 l0 0 ZM760 366 l0 -64 l-248 -90 l-232 78 l36 76 l444 0 l0 0 l0 0 Z" /><glyph glyph-name="" unicode="&#x4ffa;" d="M986 70 l-138 0 l-10 -26 l-156 0 l0 54 l258 0 l0 390 l-258 0 l0 80 l-140 0 l0 -80 l-258 0 l0 -390 l258 0 l0 -165 l398 0 l46 137 l0 0 l0 0 ZM804 522 l186 0 l-144 124 l114 0 l0 120 l-274 0 l10 44 l-148 0 l-12 -44 l-252 0 l0 -120 l110 0 l-168 -124 l196 0 l170 124 l66 0 l146 -124 l0 0 l0 0 ZM542 240 l0 -32 l-118 0 l0 32 l118 0 l0 0 l0 0 ZM424 346 l0 32 l118 0 l0 -32 l-118 0 l0 0 l0 0 ZM800 240 l0 -32 l-118 0 l0 32 l118 0 l0 0 l0 0 ZM682 346 l0 32 l118 0 l0 -32 l-118 0 l0 0 l0 0 ZM294 806 l-150 0 l-138 -416 l92 0 l0 -457 l144 0 l0 537 l-56 0 l108 336 l0 0 l0 0 Z" /><glyph glyph-name="" unicode="&#x6309;" d="M450 502 l-78 0 l0 -132 l54 0 l-44 -178 l126 -64 l-154 -66 l0 -141 l308 131 l302 -131 l0 147 l-138 62 l94 54 l0 186 l54 0 l0 132 l-388 0 l8 46 l-134 0 l-10 -46 l0 0 l0 0 ZM668 204 l-118 64 l24 102 l198 0 l0 -110 l-104 -56 l0 0 l0 0 ZM510 638 l306 0 l0 -58 l148 0 l0 190 l-220 0 l-12 40 l-158 0 l12 -40 l-228 0 l0 -190 l152 0 l0 58 l0 0 l0 0 ZM256 -67 l0 317 l82 38 l0 152 l-82 -38 l0 132 l78 0 l0 136 l-78 0 l0 136 l-144 0 l0 -136 l-76 0 l0 -136 l76 0 l0 -184 l-76 -32 l0 -150 l76 32 l0 -134 l-52 0 l0 -133 l196 0 l0 0 l0 0 Z" /><glyph glyph-name="" unicode="&#x6697;" d="M964 -67 l0 451 l-534 0 l0 -451 l534 0 l0 0 l0 0 ZM380 -21 l0 803 l-320 0 l0 -803 l320 0 l0 0 l0 0 ZM754 550 l-98 0 l-32 60 l-148 0 l32 -60 l-98 0 l0 -124 l572 0 l0 124 l-74 0 l24 60 l-154 0 l-24 -60 l0 0 l0 0 ZM594 810 l16 -44 l-186 0 l0 -124 l546 0 l0 124 l-206 0 l-14 44 l-156 0 l0 0 l0 0 ZM580 96 l234 0 l0 -40 l-234 0 l0 40 l0 0 l0 0 ZM580 260 l234 0 l0 -40 l-234 0 l0 40 l0 0 l0 0 ZM244 114 l-48 0 l0 212 l48 0 l0 -212 l0 0 l0 0 ZM196 646 l48 0 l0 -184 l-48 0 l0 184 l0 0 l0 0 Z" /><glyph glyph-name="" unicode="&#x5cb8;" d="M524 30 l0 -97 l148 0 l0 97 l272 0 l0 132 l-272 0 l0 48 l256 0 l0 136 l-656 0 l0 -136 l252 0 l0 -48 l-272 0 l0 -132 l272 0 l0 0 l0 0 ZM180 -67 l44 181 l0 272 l738 0 l0 136 l-886 0 l0 -394 l-46 -195 l150 0 l0 0 l0 0 ZM224 782 l-148 0 l0 -224 l872 0 l0 224 l-148 0 l0 -88 l-212 0 l0 116 l-148 0 l0 -116 l-216 0 l0 88 l0 0 l0 0 Z" /><glyph glyph-name="" unicode="&#x6848;" d="M56 572 l0 -126 l74 0 l-48 -82 l152 -24 l-174 -20 l0 -114 l452 72 l448 -68 l0 114 l-176 20 l124 16 l0 86 l60 0 l0 126 l-606 0 l24 46 l-162 0 l-24 -46 l-144 0 l0 0 l0 0 ZM422 810 l12 -40 l-378 0 l0 -160 l144 0 l0 44 l624 0 l0 -44 l144 0 l0 160 l-372 0 l-16 40 l-158 0 l0 0 l0 0 ZM512 396 l-230 32 l12 18 l466 0 l0 -16 l-248 -34 l0 0 l0 0 ZM984 -67 l-136 131 l120 0 l0 122 l-384 0 l0 46 l-148 0 l0 -46 l-380 0 l0 -122 l116 0 l-130 -131 l180 0 l130 131 l84 0 l0 -131 l148 0 l0 131 l78 0 l136 -131 l186 0 l0 0 l0 0 Z" /><glyph glyph-name="" unicode="&#x80ae;" d="M1008 178 l-106 0 l-18 -108 l0 504 l-404 0 l0 -420 l-46 -221 l152 0 l38 197 l0 308 l116 0 l0 -505 l226 0 l42 245 l0 0 l0 0 ZM424 782 l-352 0 l0 -622 l-46 -227 l146 0 l44 219 l0 34 l64 0 l0 -120 l-48 0 l0 -133 l192 0 l0 849 l0 0 l0 0 ZM216 322 l0 96 l64 0 l0 -96 l-64 0 l0 0 l0 0 ZM216 554 l0 92 l64 0 l0 -92 l-64 0 l0 0 l0 0 ZM934 622 l0 136 l-164 0 l-12 52 l-154 0 l12 -52 l-162 0 l0 -136 l480 0 l0 0 l0 0 Z" /><glyph glyph-name="" unicode="&#x6602;" d="M90 790 l0 -412 l848 0 l0 412 l-848 0 l0 0 l0 0 ZM656 216 l152 0 l0 -120 l-94 0 l0 -129 l242 0 l0 381 l-448 0 l0 -415 l148 0 l0 283 l0 0 l0 0 ZM470 -5 l0 135 l-246 -38 l0 116 l246 18 l0 134 l-394 -28 l0 -260 l-32 -4 l0 -129 l426 56 l0 0 l0 0 ZM790 500 l-552 0 l0 32 l552 0 l0 -32 l0 0 l0 0 ZM790 670 l0 -32 l-552 0 l0 32 l552 0 l0 0 l0 0 Z" /><glyph glyph-name="" unicode="&#x51f9;" d="M822 634 l0 -548 l-612 0 l0 548 l106 0 l0 -370 l392 0 l0 370 l114 0 l0 0 l0 0 ZM460 396 l0 374 l-394 0 l0 -817 l900 0 l0 817 l-402 0 l0 -374 l-104 0 l0 0 l0 0 Z" /><glyph glyph-name="" unicode="&#x71ac;" d="M674 96 l78 126 l78 -126 l164 0 l-154 242 l112 178 l0 122 l36 0 l0 130 l-254 0 l4 42 l-148 0 l-42 -336 l148 0 l22 164 l90 0 l0 -90 l-66 -110 l-142 0 l72 -98 l-160 -244 l162 0 l0 0 l0 0 ZM374 -67 l168 0 l-92 133 l-168 0 l92 -133 l0 0 l0 0 ZM178 -67 l90 133 l-166 0 l-86 -133 l162 0 l0 0 l0 0 ZM608 -67 l170 0 l-100 133 l-168 0 l98 -133 l0 0 l0 0 ZM842 -67 l168 0 l-98 133 l-168 0 l98 -133 l0 0 l0 0 ZM524 396 l0 106 l-164 0 l0 30 l144 0 l0 108 l-144 0 l0 30 l164 0 l0 106 l-164 0 l0 34 l-144 0 l0 -34 l-156 0 l0 -106 l156 0 l0 -30 l-140 0 l0 -108 l140 0 l0 -30 l-168 0 l0 -106 l52 0 l-66 -300 l148 0 l38 152 l136 0 l-4 -42 l-90 0 l0 -110 l232 0 l10 266 l-260 0 l4 34 l276 0 l0 0 l0 0 Z" /><glyph glyph-name="" unicode="&#x8884;" d="M838 -67 l158 0 l-196 397 l190 0 l0 136 l-202 0 l0 186 l174 16 l0 136 l-504 -40 l0 -136 l182 16 l0 -178 l-182 0 l14 24 l-130 0 l-50 -78 l-14 16 l134 250 l-92 0 l-64 128 l-156 0 l64 -128 l-130 0 l0 -132 l144 0 l-164 -292 l114 0 l0 -321 l148 0 l0 309 l138 -132 l0 186 l-38 34 l62 104 l0 -104 l190 0 l-206 -397 l156 0 l136 263 l124 -263 l0 0 l0 0 Z" /><glyph glyph-name="" unicode="&#x50b2;" d="M500 468 l86 0 l0 132 l-86 0 l0 34 l106 0 l0 132 l-106 0 l0 44 l-138 0 l0 -44 l-100 0 l0 -132 l100 0 l0 -34 l-88 0 l0 -132 l88 0 l0 -34 l-100 0 l0 -132 l50 0 l-56 -369 l144 0 l30 197 l38 0 l0 -72 l-24 0 l0 -125 l166 0 l0 333 l-158 0 l4 36 l152 0 l0 132 l-108 0 l0 34 l0 0 l0 0 ZM118 810 l-98 -440 l66 0 l0 -437 l142 0 l0 527 l-48 0 l80 350 l-142 0 l0 0 l0 0 ZM766 -67 l34 113 l38 -113 l148 0 l-106 313 l72 288 l0 100 l28 0 l0 132 l-174 0 l6 44 l-138 0 l-54 -384 l136 0 l32 208 l24 0 l0 -80 l-42 -164 l-102 0 l52 -144 l-96 -313 l142 0 l0 0 l0 0 Z" /><glyph glyph-name="" unicode="&#x5965;" d="M58 222 l0 -120 l366 0 l-366 -60 l0 -123 l458 99 l450 -99 l0 123 l-362 60 l362 0 l0 120 l-378 0 l0 32 l-148 0 l0 -32 l-382 0 l0 0 l0 0 ZM804 266 l144 0 l0 510 l-376 0 l12 38 l-162 0 l-12 -38 l-334 0 l0 -510 l144 0 l0 392 l584 0 l0 -392 l0 0 l0 0 ZM250 402 l146 0 l-134 -32 l0 -106 l160 42 l0 96 l30 0 l0 -122 l124 0 l0 120 l30 0 l0 -98 l160 -38 l0 108 l-140 28 l148 0 l0 104 l-160 0 l152 38 l0 102 l-160 -40 l0 -100 l-30 0 l0 124 l-124 0 l0 -124 l-30 0 l0 100 l-160 42 l0 -104 l152 -38 l-164 0 l0 -102 l0 0 l0 0 Z" /><glyph glyph-name="" unicode="&#x61ca;" d="M318 774 l0 -522 l116 0 l0 412 l412 0 l0 -412 l116 0 l0 522 l-252 0 l8 36 l-144 0 l-8 -36 l-248 0 l0 0 l0 0 ZM296 222 l0 -114 l278 0 l-274 -58 l0 -123 l344 89 l328 -89 l0 127 l-266 54 l268 0 l0 114 l-268 0 l0 30 l-132 0 l0 -30 l-278 0 l0 0 l0 0 ZM694 416 l114 0 l0 98 l-114 0 l0 126 l-108 0 l0 -126 l-114 0 l0 -98 l114 0 l0 -140 l108 0 l0 140 l0 0 l0 0 ZM444 276 l104 0 l28 120 l-94 0 l-38 -120 l0 0 l0 0 ZM802 396 l-98 0 l30 -120 l100 0 l-32 120 l0 0 l0 0 ZM792 534 l32 98 l-98 0 l-30 -98 l96 0 l0 0 l0 0 ZM128 802 l0 -869 l120 0 l0 583 l46 -50 l0 162 l-46 48 l0 126 l-120 0 l0 0 l0 0 ZM122 630 l-96 0 l-24 -292 l96 0 l24 292 l0 0 l0 0 ZM488 534 l96 0 l-30 98 l-98 0 l32 -98 l0 0 l0 0 Z" /><glyph glyph-name="" unicode="&#x6fb3;" d="M270 276 l-152 0 l-92 -343 l150 0 l94 343 l0 0 l0 0 ZM250 694 l-176 124 l0 -168 l176 -124 l0 168 l0 0 l0 0 ZM222 480 l-186 124 l0 -168 l186 -124 l0 168 l0 0 l0 0 ZM302 774 l0 -522 l124 0 l0 412 l416 0 l0 -412 l124 0 l0 522 l-284 0 l8 36 l-144 0 l-10 -36 l-234 0 l0 0 l0 0 ZM688 416 l124 0 l0 98 l-124 0 l0 126 l-108 0 l0 -126 l-124 0 l0 -98 l124 0 l0 -140 l108 0 l0 140 l0 0 l0 0 ZM438 276 l104 0 l28 120 l-96 0 l-36 -120 l0 0 l0 0 ZM798 396 l-98 0 l28 -120 l100 0 l-30 120 l0 0 l0 0 ZM280 222 l0 -114 l288 0 l-286 -60 l0 -123 l354 89 l332 -87 l0 127 l-268 54 l278 0 l0 114 l-278 0 l0 30 l-132 0 l0 -30 l-288 0 l0 0 l0 0 ZM482 534 l96 0 l-30 98 l-98 0 l32 -98 l0 0 l0 0 ZM786 534 l32 98 l-98 0 l-30 -98 l96 0 l0 0 l0 0 Z" /><glyph glyph-name="" unicode="&#x82ad;" d="M814 66 l-590 0 l0 122 l720 0 l0 372 l-864 0 l0 -627 l848 0 l50 199 l-144 0 l-20 -66 l0 0 l0 0 ZM612 814 l0 -42 l-188 0 l0 42 l-148 0 l0 -42 l-222 0 l0 -136 l222 0 l0 -46 l148 0 l0 46 l188 0 l0 -46 l148 0 l0 46 l210 0 l0 136 l-210 0 l0 42 l-148 0 l0 0 l0 0 ZM224 320 l0 108 l216 0 l0 -108 l-216 0 l0 0 l0 0 ZM796 428 l0 -108 l-212 0 l0 108 l212 0 l0 0 l0 0 Z" /><glyph glyph-name="" unicode="&#x634c;" d="M348 210 l-66 -277 l138 0 l66 277 l24 0 l0 -144 l-26 0 l0 -133 l158 0 l0 413 l-134 0 l4 46 l-136 0 l-4 -46 l-62 0 l0 -136 l38 0 l0 0 l0 0 ZM742 -67 l222 0 l0 873 l-132 0 l0 -740 l-90 0 l0 -133 l0 0 l0 0 ZM672 762 l0 -648 l124 0 l0 648 l-124 0 l0 0 l0 0 ZM446 664 l48 0 l0 -120 l-48 0 l0 120 l0 0 l0 0 ZM228 -67 l0 327 l48 28 l0 154 l-48 -28 l0 120 l52 0 l0 136 l-52 0 l0 136 l-132 0 l0 -136 l-60 0 l0 -136 l60 0 l0 -184 l-60 -32 l0 -154 l60 32 l0 -130 l-36 0 l0 -133 l168 0 l0 0 l0 0 ZM626 786 l-312 0 l0 -364 l312 0 l0 364 l0 0 l0 0 Z" /><glyph glyph-name="" unicode="&#x6252;" d="M322 -67 l156 0 l136 855 l-148 0 l-144 -855 l0 0 l0 0 ZM844 -67 l152 0 l-152 873 l-154 0 l154 -873 l0 0 l0 0 ZM56 -67 l212 0 l0 315 l94 32 l0 152 l-94 -32 l0 134 l98 0 l0 136 l-98 0 l0 136 l-144 0 l0 -136 l-88 0 l0 -136 l88 0 l0 -184 l-88 -32 l0 -150 l88 32 l0 -134 l-68 0 l0 -133 l0 0 l0 0 Z" /><glyph glyph-name="" unicode="&#x53ed;" d="M410 772 l-346 0 l0 -793 l346 0 l0 793 l0 0 l0 0 ZM846 -67 l148 0 l-112 873 l-156 0 l120 -873 l0 0 l0 0 ZM208 636 l58 0 l0 -526 l-58 0 l0 526 l0 0 l0 0 ZM570 -67 l96 857 l-150 0 l-96 -857 l150 0 l0 0 l0 0 Z" /><glyph glyph-name="" unicode="&#x5427;" d="M814 654 l0 -216 l-52 0 l0 216 l52 0 l0 0 l0 0 ZM570 438 l0 216 l52 0 l0 -216 l-52 0 l0 0 l0 0 ZM204 646 l40 0 l0 -536 l-40 0 l0 536 l0 0 l0 0 ZM60 782 l0 -803 l328 0 l0 803 l-328 0 l0 0 l0 0 ZM844 158 l-22 -92 l-252 0 l0 240 l388 0 l0 484 l-532 0 l0 -857 l512 0 l46 225 l-140 0 l0 0 l0 0 Z" /><glyph glyph-name="" unicode="&#x7b06;" d="M820 62 l-596 0 l0 128 l728 0 l0 332 l-876 0 l0 -589 l868 0 l36 193 l-140 0 l-20 -64 l0 0 l0 0 ZM878 658 l98 0 l0 120 l-222 0 l20 40 l-156 0 l-122 -262 l160 0 l52 102 l72 -102 l170 0 l-72 102 l0 0 l0 0 ZM408 658 l112 0 l0 120 l-226 0 l20 40 l-166 0 l-122 -262 l160 0 l52 102 l72 -102 l170 0 l-72 102 l0 0 l0 0 ZM804 394 l0 -76 l-216 0 l0 76 l216 0 l0 0 l0 0 ZM224 318 l0 76 l216 0 l0 -76 l-216 0 l0 0 l0 0 Z" /><glyph glyph-name="" unicode="&#x516b;" d="M522 796 l164 0 l292 -853 l-164 0 l-292 853 l0 0 l0 0 ZM304 770 l-256 -827 l162 0 l252 827 l-158 0 l0 0 l0 0 Z" /><glyph glyph-name="" unicode="&#x75a4;" d="M344 592 l0 -659 l604 0 l40 203 l-144 0 l-18 -70 l-338 0 l0 148 l472 0 l0 378 l-616 0 l0 0 l0 0 ZM40 146 l120 86 l0 -96 l-98 -203 l156 0 l86 167 l0 536 l684 0 l0 136 l-330 0 l-14 44 l-162 0 l14 -44 l-336 0 l0 -370 l-120 -82 l0 -174 l0 0 l0 0 ZM488 346 l0 114 l98 0 l0 -114 l-98 0 l0 0 l0 0 ZM816 460 l0 -114 l-86 0 l0 114 l86 0 l0 0 l0 0 ZM14 658 l22 -236 l118 0 l-24 236 l-116 0 l0 0 l0 0 Z" /><glyph glyph-name="" unicode="&#x5df4;" d="M788 654 l0 -232 l-210 0 l0 232 l210 0 l0 0 l0 0 ZM224 422 l0 232 l206 0 l0 -232 l-206 0 l0 0 l0 0 ZM818 164 l-26 -98 l-568 0 l0 220 l712 0 l0 504 l-860 0 l0 -857 l850 0 l52 231 l-160 0 l0 0 l0 0 Z" /><glyph glyph-name="" unicode="&#x62d4;" d="M544 326 l242 0 l-100 -94 l-48 46 l-110 0 l16 48 l0 0 l0 0 ZM508 220 l80 -82 l-228 -205 l198 0 l126 109 l120 -109 l192 0 l-212 201 l158 158 l0 170 l-356 0 l24 72 l364 0 l0 136 l-332 0 l36 136 l-146 0 l-42 -136 l-112 0 l0 -136 l80 0 l-166 -504 l154 0 l62 190 l0 0 l0 0 ZM726 706 l206 -30 l0 102 l-206 30 l0 -102 l0 0 l0 0 ZM260 -67 l0 317 l86 32 l0 150 l-86 -32 l0 134 l84 0 l0 136 l-84 0 l0 136 l-142 0 l0 -136 l-88 0 l0 -136 l88 0 l0 -184 l-82 -32 l0 -150 l82 32 l0 -134 l-62 0 l0 -133 l204 0 l0 0 l0 0 Z" /><glyph glyph-name="" unicode="&#x8dcb;" d="M366 110 l0 112 l80 0 l0 132 l-80 0 l0 60 l70 0 l0 376 l-358 0 l0 -376 l154 0 l0 -322 l-36 -2 l0 284 l-124 0 l0 -302 l-36 -2 l0 -139 l402 44 l0 143 l-72 -8 l0 0 l0 0 ZM220 658 l74 0 l0 -112 l-74 0 l0 112 l0 0 l0 0 ZM642 322 l138 0 l-36 -52 l-116 0 l14 52 l0 0 l0 0 ZM618 234 l46 -60 l-196 -241 l178 0 l100 127 l88 -127 l168 0 l-158 233 l116 168 l0 124 l-290 0 l16 62 l296 0 l0 132 l-272 0 l24 154 l-142 0 l-24 -154 l-102 0 l0 -132 l80 0 l-102 -436 l130 0 l44 150 l0 0 l0 0 ZM786 686 l172 -20 l0 106 l-172 20 l0 -106 l0 0 l0 0 Z" /><glyph glyph-name="" unicode="&#x9776;" d="M440 484 l0 156 l56 0 l0 126 l-56 0 l0 40 l-134 0 l0 -40 l-70 0 l0 40 l-134 0 l0 -40 l-56 0 l0 -126 l56 0 l0 -156 l102 0 l0 -30 l-140 0 l0 -306 l140 0 l0 -32 l-156 0 l0 -125 l156 0 l0 -58 l130 0 l0 58 l152 0 l0 125 l-152 0 l0 32 l140 0 l0 306 l-140 0 l0 30 l106 0 l0 0 l0 0 ZM306 608 l-70 0 l0 32 l70 0 l0 -32 l0 0 l0 0 ZM360 330 l0 -56 l-36 0 l0 56 l36 0 l0 0 l0 0 ZM178 274 l0 56 l36 0 l0 -56 l-36 0 l0 0 l0 0 ZM844 160 l-20 -104 l-168 0 l0 250 l300 0 l0 476 l-434 0 l0 -849 l430 0 l30 227 l-138 0 l0 0 l0 0 ZM650 434 l0 218 l40 0 l0 -218 l-40 0 l0 0 l0 0 ZM832 652 l0 -218 l-40 0 l0 218 l40 0 l0 0 l0 0 Z" /><glyph glyph-name="" unicode="&#x628a;" d="M396 790 l0 -857 l544 0 l36 237 l-152 0 l-20 -100 l-264 0 l0 240 l408 0 l0 480 l-552 0 l0 0 l0 0 ZM68 -67 l206 0 l0 317 l86 36 l0 150 l-86 -36 l0 134 l90 0 l0 136 l-90 0 l0 136 l-144 0 l0 -136 l-94 0 l0 -136 l94 0 l0 -182 l-94 -34 l0 -152 l94 36 l0 -136 l-62 0 l0 -133 l0 0 l0 0 ZM600 446 l-60 0 l0 208 l60 0 l0 -208 l0 0 l0 0 ZM744 654 l60 0 l0 -208 l-60 0 l0 208 l0 0 l0 0 Z" /><glyph glyph-name="" unicode="&#x8019;" d="M508 -67 l440 0 l44 233 l-146 0 l-22 -96 l-174 0 l0 244 l312 0 l0 476 l-454 0 l0 -857 l0 0 l0 0 ZM644 450 l0 204 l36 0 l0 -204 l-36 0 l0 0 l0 0 ZM828 654 l0 -204 l-36 0 l0 204 l36 0 l0 0 l0 0 ZM42 626 l152 0 l0 -36 l-136 0 l0 -136 l136 0 l0 -36 l-152 0 l0 -136 l152 0 l0 -349 l142 0 l0 349 l140 0 l0 136 l-140 0 l0 36 l132 0 l0 136 l-132 0 l0 36 l144 0 l0 136 l-144 0 l0 48 l-142 0 l0 -48 l-152 0 l0 -136 l0 0 l0 0 ZM182 242 l-116 0 l-40 -309 l118 0 l38 309 l0 0 l0 0 ZM462 242 l-114 0 l34 -263 l114 0 l-34 263 l0 0 l0 0 Z" /><glyph glyph-name="" unicode="&#x575d;" d="M50 -57 l324 127 l0 152 l-102 -44 l0 292 l96 0 l0 140 l-96 0 l0 196 l-140 0 l0 -196 l-86 0 l0 -140 l86 0 l0 -346 l-82 -32 l0 -149 l0 0 l0 0 ZM404 790 l0 -622 l142 0 l0 490 l270 0 l0 -490 l144 0 l0 622 l-556 0 l0 0 l0 0 ZM394 -91 l288 157 l292 -153 l0 151 l-222 118 l0 436 l-148 0 l0 -436 l-210 -118 l0 -155 l0 0 l0 0 Z" /><glyph glyph-name="" unicode="&#x9738;" d="M956 710 l0 80 l-880 0 l0 -80 l366 0 l0 -30 l-378 0 l0 -170 l142 0 l0 92 l236 0 l0 -100 l144 0 l0 100 l232 0 l0 -92 l142 0 l0 170 l-374 0 l0 30 l370 0 l0 0 l0 0 ZM664 510 l128 0 l-48 66 l-128 0 l48 -66 l0 0 l0 0 ZM272 514 l128 0 l-48 58 l-128 0 l48 -58 l0 0 l0 0 ZM684 -67 l16 123 l0 38 l120 0 l0 -56 l-54 0 l0 -105 l190 0 l0 537 l-392 0 l0 -404 l-16 -133 l136 0 l0 0 l0 0 ZM820 370 l0 -38 l-120 0 l0 38 l120 0 l0 0 l0 0 ZM700 232 l120 0 l0 -38 l-120 0 l0 38 l0 0 l0 0 ZM368 52 l0 30 l160 0 l0 168 l-160 0 l0 30 l132 0 l0 100 l28 0 l0 68 l-28 0 l0 32 l-130 0 l0 -32 l-144 0 l0 32 l-130 0 l0 -32 l-36 0 l0 -68 l36 0 l0 -100 l140 0 l0 -30 l-164 0 l0 -164 l164 0 l0 -30 l-180 0 l0 -83 l180 0 l0 -40 l132 0 l0 40 l164 0 l0 79 l-164 0 l0 0 l0 0 ZM412 150 l-44 0 l0 32 l44 0 l0 -32 l0 0 l0 0 ZM236 182 l0 -32 l-48 0 l0 32 l48 0 l0 0 l0 0 ZM226 348 l0 32 l144 0 l0 -32 l-144 0 l0 0 l0 0 Z" /><glyph glyph-name="" unicode="&#x7f62;" d="M732 102 l20 -46 l-394 0 l134 76 l480 0 l0 130 l-388 0 l0 46 l352 0 l0 128 l-352 0 l0 34 l-148 0 l0 -34 l-348 0 l0 -128 l348 0 l0 -46 l-384 0 l0 -130 l210 0 l-158 -84 l0 -115 l882 0 l-96 169 l-158 0 l0 0 l0 0 ZM952 496 l0 294 l-880 0 l0 -294 l880 0 l0 0 l0 0 ZM216 622 l0 42 l104 0 l0 -42 l-104 0 l0 0 l0 0 ZM808 664 l0 -42 l-100 0 l0 42 l100 0 l0 0 l0 0 ZM460 622 l0 42 l104 0 l0 -42 l-104 0 l0 0 l0 0 Z" /><glyph glyph-name="" unicode="&#x7238;" d="M80 422 l0 -489 l862 0 l30 163 l-150 0 l-10 -38 l-584 0 l0 74 l720 0 l0 290 l-868 0 l0 0 l0 0 ZM972 424 l0 122 l-216 52 l28 8 l0 34 l170 -44 l0 124 l-392 102 l0 -126 l46 -10 l-96 -26 l-96 28 l40 8 l0 126 l-386 -102 l0 -124 l162 40 l0 -30 l22 -6 l-198 -46 l0 -126 l454 98 l462 -102 l0 0 l0 0 ZM228 252 l0 50 l216 0 l0 -50 l-216 0 l0 0 l0 0 ZM800 302 l0 -50 l-212 0 l0 50 l212 0 l0 0 l0 0 Z" /><glyph glyph-name="" unicode="&#x767d;" d="M790 284 l0 -212 l-556 0 l0 212 l556 0 l0 0 l0 0 ZM790 620 l0 -202 l-556 0 l0 202 l556 0 l0 0 l0 0 ZM406 808 l-22 -58 l-294 0 l0 -807 l844 0 l0 807 l-388 0 l18 58 l-158 0 l0 0 l0 0 Z" /><glyph glyph-name="" unicode="&#x67cf;" d="M456 -67 l508 0 l0 813 l-180 0 l12 60 l-162 0 l-12 -60 l-166 0 l0 -813 l0 0 l0 0 ZM426 578 l0 132 l-82 0 l0 96 l-144 0 l0 -96 l-148 0 l0 -132 l148 0 l0 -645 l144 0 l0 301 l80 -88 l0 200 l-80 88 l0 144 l82 0 l0 0 l0 0 ZM816 66 l-212 0 l0 212 l212 0 l0 -212 l0 0 l0 0 ZM604 610 l212 0 l0 -196 l-212 0 l0 196 l0 0 l0 0 ZM166 -21 l24 539 l-118 0 l-28 -539 l122 0 l0 0 l0 0 Z" /><glyph glyph-name="" unicode="&#x767e;" d="M238 444 l548 0 l0 -114 l-548 0 l0 114 l0 0 l0 0 ZM786 72 l-548 0 l0 126 l548 0 l0 -126 l0 0 l0 0 ZM542 572 l24 76 l392 0 l0 132 l-896 0 l0 -132 l350 0 l-26 -76 l-292 0 l0 -629 l836 0 l0 629 l-388 0 l0 0 l0 0 Z" /><glyph glyph-name="" unicode="&#x6446;" d="M366 434 l0 -128 l214 0 l0 -46 l-256 0 l0 -128 l146 0 l-120 -92 l0 -107 l630 0 l-60 169 l-150 0 l12 -40 l-188 0 l80 70 l310 0 l0 128 l-260 0 l0 46 l222 0 l0 128 l-222 0 l0 38 l-144 0 l0 -38 l-214 0 l0 0 l0 0 ZM340 502 l620 0 l0 288 l-620 0 l0 -288 l0 0 l0 0 ZM504 678 l0 -66 l-40 0 l0 66 l40 0 l0 0 l0 0 ZM834 678 l0 -66 l-38 0 l0 66 l38 0 l0 0 l0 0 ZM670 678 l0 -66 l-40 0 l0 66 l40 0 l0 0 l0 0 ZM50 -67 l192 0 l0 313 l72 32 l0 154 l-72 -34 l0 136 l68 0 l0 136 l-68 0 l0 136 l-144 0 l0 -136 l-64 0 l0 -136 l64 0 l0 -188 l-62 -28 l0 -152 l62 28 l0 -128 l-48 0 l0 -133 l0 0 l0 0 Z" /><glyph glyph-name="" unicode="&#x8d25;" d="M732 630 l88 0 l0 -112 l-66 -164 l-128 0 l62 -128 l-124 -293 l152 0 l56 131 l68 -131 l156 0 l-144 289 l110 264 l0 144 l34 0 l0 136 l-242 0 l6 40 l-144 0 l-72 -418 l142 0 l46 242 l0 0 l0 0 ZM534 782 l-470 0 l0 -602 l138 0 l0 470 l194 0 l0 -472 l138 0 l0 604 l0 0 l0 0 ZM362 188 l0 414 l-126 0 l0 -414 l-172 -112 l0 -163 l234 155 l234 -155 l0 167 l-170 108 l0 0 l0 0 Z" /><glyph glyph-name="" unicode="&#x62dc;" d="M668 378 l-146 0 l0 -132 l146 0 l0 -76 l-174 0 l0 -132 l174 0 l0 -105 l148 0 l0 105 l168 0 l0 132 l-168 0 l0 76 l142 0 l0 132 l-142 0 l0 76 l142 0 l0 132 l-142 0 l0 72 l164 0 l0 132 l-476 0 l0 -132 l164 0 l0 -72 l-146 0 l0 -132 l146 0 l0 -76 l0 0 l0 0 ZM238 -67 l74 169 l148 0 l0 132 l-130 0 l0 138 l130 0 l0 136 l-130 0 l0 144 l130 8 l0 132 l-416 -24 l0 -136 l142 8 l0 -132 l-130 0 l0 -136 l130 0 l0 -138 l-150 0 l0 -132 l118 0 l-82 -169 l166 0 l0 0 l0 0 Z" /><glyph glyph-name="" unicode="&#x6591;" d="M984 -67 l0 133 l-82 0 l0 258 l78 0 l0 132 l-78 0 l0 202 l82 0 l0 132 l-306 0 l0 -132 l82 0 l0 -202 l-70 0 l0 -132 l70 0 l0 -258 l-78 0 l0 -133 l302 0 l0 0 l0 0 ZM250 336 l72 0 l0 132 l-72 0 l0 190 l84 0 l0 132 l-302 0 l0 -132 l78 0 l0 -190 l-74 0 l0 -132 l74 0 l0 -240 l-86 -28 l0 -143 l310 91 l0 146 l-84 -28 l0 202 l0 0 l0 0 ZM338 642 l0 -136 l154 0 l-16 -64 l-98 0 l52 -152 l-112 -357 l146 0 l46 147 l34 -101 l148 0 l-110 327 l56 200 l62 0 l0 136 l-362 0 l0 0 l0 0 ZM414 814 l36 -142 l148 0 l-36 142 l-148 0 l0 0 l0 0 Z" /><glyph glyph-name="" unicode="&#x73ed;" d="M258 658 l84 0 l0 132 l-302 0 l0 -132 l80 0 l0 -188 l-76 0 l0 -132 l76 0 l0 -244 l-80 -30 l0 -141 l306 109 l0 144 l-88 -32 l0 194 l78 0 l0 132 l-78 0 l0 188 l0 0 l0 0 ZM780 658 l0 -208 l-68 0 l0 -132 l68 0 l0 -252 l-90 0 l0 -133 l298 0 l0 133 l-70 0 l0 252 l62 0 l0 132 l-62 0 l0 208 l70 0 l0 132 l-282 0 l0 -132 l74 0 l0 0 l0 0 ZM536 806 l0 -600 l-146 -273 l158 0 l126 233 l0 640 l-138 0 l0 0 l0 0 ZM382 706 l-14 -476 l120 0 l14 476 l-120 0 l0 0 l0 0 Z" /><glyph glyph-name="" unicode="&#x642c;" d="M420 304 l112 0 l0 -254 l-74 0 l0 -117 l182 0 l0 829 l-108 0 l16 48 l-138 0 l-16 -48 l-82 0 l0 -338 l-24 0 l0 -120 l24 0 l0 -200 l-54 -171 l112 0 l50 171 l0 200 l0 0 l0 0 ZM54 -67 l162 0 l0 333 l46 24 l0 140 l-46 -26 l0 142 l60 0 l0 122 l-60 0 l0 138 l-116 0 l0 -138 l-60 0 l0 -122 l60 0 l0 -190 l-56 -28 l0 -140 l56 30 l0 -166 l-46 0 l0 -119 l0 0 l0 0 ZM670 314 l158 0 l-24 -60 l-100 0 l50 -104 l-106 -217 l122 0 l44 87 l38 -87 l122 0 l-88 217 l78 192 l0 88 l-294 0 l0 -116 l0 0 l0 0 ZM978 582 l-30 0 l0 204 l-246 0 l-48 -334 l110 0 l36 214 l34 0 l0 -204 l144 0 l0 120 l0 0 l0 0 ZM424 424 l0 218 l108 0 l0 -218 l-108 0 l0 0 l0 0 ZM428 610 l26 -154 l70 0 l-26 154 l-70 0 l0 0 l0 0 ZM428 272 l24 -180 l72 0 l-24 180 l-72 0 l0 0 l0 0 Z" /><glyph glyph-name="" unicode="&#x6273;" d="M522 438 l290 0 l0 -24 l-80 -114 l-48 74 l-162 0 l120 -194 l-186 -247 l168 0 l100 131 l92 -131 l172 0 l-174 241 l142 208 l0 188 l-434 0 l0 76 l442 16 l0 136 l-584 -16 l0 -616 l-84 -233 l148 0 l78 205 l0 300 l0 0 l0 0 ZM256 -67 l0 317 l88 32 l0 150 l-88 -32 l0 134 l90 0 l0 136 l-90 0 l0 136 l-140 0 l0 -136 l-82 0 l0 -136 l82 0 l0 -184 l-82 -32 l0 -150 l82 32 l0 -134 l-56 0 l0 -133 l196 0 l0 0 l0 0 Z" /><glyph glyph-name="" unicode="&#x822c;" d="M208 302 l162 0 l0 -236 l-88 0 l0 -133 l222 0 l0 837 l-170 0 l20 44 l-140 0 l-22 -44 l-118 0 l0 -336 l-42 0 l0 -132 l42 0 l0 -142 l-38 -227 l134 0 l38 215 l0 154 l0 0 l0 0 ZM208 634 l162 0 l0 -200 l-162 0 l0 200 l0 0 l0 0 ZM252 462 l102 0 l-32 140 l-102 0 l32 -140 l0 0 l0 0 ZM348 108 l-26 160 l-96 0 l24 -160 l98 0 l0 0 l0 0 ZM780 304 l-34 -52 l-14 20 l-162 0 l94 -132 l-154 -207 l166 0 l72 97 l70 -97 l168 0 l-152 207 l122 176 l0 116 l-422 0 l0 -128 l246 0 l0 0 l0 0 ZM532 464 l138 0 l24 196 l108 0 l0 -190 l178 0 l0 130 l-44 0 l0 190 l-364 0 l-40 -326 l0 0 l0 0 Z" /><glyph glyph-name="" unicode="&#x9881;" d="M478 662 l182 0 l-6 -44 l-156 0 l0 -478 l136 0 l0 350 l194 0 l0 -350 l136 0 l0 478 l-162 0 l6 44 l178 0 l0 128 l-508 0 l0 -128 l0 0 l0 0 ZM110 330 l-72 -397 l140 0 l76 397 l54 0 l-8 -272 l-66 0 l0 -125 l208 0 l4 529 l-398 0 l0 -132 l62 0 l0 0 l0 0 ZM736 48 l232 -137 l0 145 l-172 96 l0 292 l-130 0 l0 -296 l-168 -88 l0 -149 l238 137 l0 0 l0 0 ZM246 822 l98 -312 l144 0 l-102 312 l-140 0 l0 0 l0 0 ZM246 800 l-136 0 l-90 -306 l132 0 l94 306 l0 0 l0 0 Z" /><glyph glyph-name="" unicode="&#x677f;" d="M620 166 l0 140 l70 -126 l-144 -247 l162 0 l66 119 l72 -119 l166 0 l-152 249 l108 198 l0 190 l-348 0 l0 80 l360 12 l0 136 l-504 -16 l0 -588 l-90 -261 l150 0 l84 233 l0 0 l0 0 ZM620 372 l0 66 l200 0 l0 -46 l-40 -82 l-40 62 l-120 0 l0 0 l0 0 ZM436 578 l0 132 l-92 0 l0 96 l-144 0 l0 -96 l-148 0 l0 -132 l148 0 l0 -645 l144 0 l0 301 l90 -98 l0 200 l-90 98 l0 144 l92 0 l0 0 l0 0 ZM166 -21 l24 539 l-118 0 l-28 -539 l122 0 l0 0 l0 0 Z" /><glyph glyph-name="" unicode="&#x7248;" d="M628 438 l200 0 l0 -14 l-42 -98 l-28 58 l-130 0 l0 54 l0 0 l0 0 ZM628 334 l72 -152 l-130 -249 l156 0 l52 103 l56 -103 l158 0 l-130 245 l110 214 l0 178 l-344 0 l0 84 l344 12 l0 132 l-486 -16 l0 -608 l-72 -241 l144 0 l70 221 l0 180 l0 0 l0 0 ZM206 362 l0 64 l242 0 l0 132 l-54 0 l0 256 l-140 0 l0 -256 l-48 0 l0 224 l-142 0 l0 -622 l-38 -227 l142 0 l36 199 l0 98 l56 0 l0 -297 l146 0 l0 429 l-200 0 l0 0 l0 0 Z" /><glyph glyph-name="" unicode="&#x626e;" d="M514 324 l-134 -391 l158 0 l134 391 l132 0 l-12 -264 l-108 0 l0 -127 l252 0 l12 521 l-532 0 l0 -130 l98 0 l0 0 l0 0 ZM686 806 l160 -308 l158 0 l-162 308 l-156 0 l0 0 l0 0 ZM668 796 l-154 0 l-154 -304 l160 0 l148 304 l0 0 l0 0 ZM280 -67 l0 321 l100 44 l0 148 l-100 -40 l0 128 l94 0 l0 136 l-94 0 l0 136 l-142 0 l0 -136 l-102 0 l0 -136 l102 0 l0 -184 l-102 -40 l0 -154 l102 42 l0 -132 l-58 0 l0 -133 l200 0 l0 0 l0 0 Z" /><glyph glyph-name="" unicode="&#x62cc;" d="M276 -67 l0 321 l102 44 l0 146 l-102 -40 l0 130 l102 0 l0 136 l-102 0 l0 136 l-140 0 l0 -136 l-100 0 l0 -136 l100 0 l0 -184 l-100 -40 l0 -154 l100 42 l0 -132 l-64 0 l0 -133 l204 0 l0 0 l0 0 ZM768 462 l0 344 l-144 0 l0 -344 l-208 0 l0 -136 l208 0 l0 -104 l-230 0 l0 -132 l230 0 l0 -157 l144 0 l0 157 l212 0 l0 132 l-212 0 l0 104 l200 0 l0 136 l-200 0 l0 0 l0 0 ZM396 762 l76 -260 l134 0 l-70 260 l-140 0 l0 0 l0 0 ZM852 762 l-70 -260 l136 0 l70 260 l-136 0 l0 0 l0 0 Z" /><glyph glyph-name="" unicode="&#x4f34;" d="M720 462 l0 344 l-148 0 l0 -344 l-256 0 l0 -136 l256 0 l0 -104 l-268 0 l0 -132 l268 0 l0 -157 l148 0 l0 157 l260 0 l0 132 l-260 0 l0 104 l248 0 l0 136 l-248 0 l0 0 l0 0 ZM306 762 l90 -260 l136 0 l-84 260 l-142 0 l0 0 l0 0 ZM844 762 l-78 -260 l140 0 l74 260 l-136 0 l0 0 l0 0 ZM152 806 l-130 -416 l80 0 l0 -457 l148 0 l0 545 l-48 0 l104 328 l-154 0 l0 0 l0 0 Z" /><glyph glyph-name="" unicode="&#x74e3;" d="M562 666 l20 2 l78 -735 l90 0 l-78 741 l32 4 l0 116 l-336 -20 l-66 -841 l94 0 l54 727 l18 2 l-30 -592 l-14 -4 l0 -129 l140 54 l2 -58 l68 0 l-28 343 l-60 0 l8 -164 l-22 -2 l30 556 l0 0 l0 0 ZM862 464 l-140 0 l0 -118 l76 0 l0 -98 l-56 0 l0 -118 l56 0 l0 -197 l120 0 l0 197 l54 0 l0 118 l-54 0 l0 98 l66 0 l0 118 l-34 0 l24 172 l-90 0 l-22 -172 l0 0 l0 0 ZM976 770 l-60 0 l-4 36 l-120 0 l4 -36 l-62 0 l0 -110 l242 0 l0 110 l0 0 l0 0 ZM194 464 l-138 0 l0 -118 l74 0 l0 -98 l-62 0 l0 -118 l50 0 l-42 -197 l120 0 l42 197 l60 0 l0 118 l-48 0 l0 98 l68 0 l0 118 l-34 0 l24 172 l-90 0 l-24 -172 l0 0 l0 0 ZM310 770 l-62 0 l-4 36 l-120 0 l4 -36 l-60 0 l0 -110 l242 0 l0 110 l0 0 l0 0 ZM156 636 l-92 0 l30 -152 l90 0 l-28 152 l0 0 l0 0 ZM822 636 l-88 0 l30 -152 l88 0 l-30 152 l0 0 l0 0 Z" /><glyph glyph-name="" unicode="&#x534a;" d="M784 762 l-132 -262 l158 0 l136 262 l-162 0 l0 0 l0 0 ZM76 762 l140 -262 l162 0 l-140 262 l-162 0 l0 0 l0 0 ZM440 806 l0 -346 l-360 0 l0 -132 l360 0 l0 -112 l-384 0 l0 -132 l384 0 l0 -151 l144 0 l0 151 l384 0 l0 132 l-384 0 l0 112 l364 0 l0 132 l-364 0 l0 346 l-144 0 l0 0 l0 0 Z" /><glyph glyph-name="" unicode="&#x529e;" d="M116 520 l-108 -382 l146 0 l116 382 l-154 0 l0 0 l0 0 ZM374 806 l-10 -92 l-266 0 l0 -132 l254 0 l-24 -138 l-238 -511 l162 0 l226 481 l24 168 l126 0 l-14 -516 l-146 0 l2 -133 l292 0 l14 781 l-260 0 l10 92 l-152 0 l0 0 l0 0 ZM784 582 l64 -552 l146 0 l-62 552 l-148 0 l0 0 l0 0 Z" /><glyph glyph-name="" unicode="&#x7eca;" d="M772 462 l0 344 l-144 0 l0 -344 l-204 0 l0 -136 l204 0 l0 -104 l-218 0 l0 -132 l218 0 l0 -157 l144 0 l0 157 l212 0 l0 132 l-212 0 l0 104 l196 0 l0 136 l-196 0 l0 0 l0 0 ZM440 606 l-164 0 l-38 -64 l-30 0 l102 264 l-150 0 l-146 -392 l148 0 l-134 -212 l340 0 l0 132 l-106 0 l178 272 l0 0 l0 0 ZM44 70 l0 -141 l334 105 l0 148 l-334 -112 l0 0 l0 0 ZM854 762 l-70 -260 l136 0 l68 260 l-134 0 l0 0 l0 0 ZM410 762 l76 -260 l136 0 l-72 260 l-140 0 l0 0 l0 0 Z" /><glyph glyph-name="" unicode="&#x90a6;" d="M354 382 l162 0 l0 132 l-162 0 l0 108 l170 0 l0 132 l-170 0 l0 52 l-142 0 l0 -52 l-168 0 l0 -132 l168 0 l0 -108 l-156 0 l0 -132 l156 0 l0 -140 l-168 0 l0 -136 l118 0 l-110 -173 l160 0 l114 173 l198 0 l0 136 l-170 0 l0 140 l0 0 l0 0 ZM804 658 l-74 -292 l90 0 l0 -260 l-78 0 l0 -129 l222 0 l0 489 l-54 0 l78 324 l-428 0 l0 -857 l140 0 l0 725 l104 0 l0 0 l0 0 Z" /><glyph glyph-name="" unicode="&#x5e2e;" d="M334 314 l206 0 l0 130 l-166 0 l0 38 l154 0 l0 130 l-154 0 l0 36 l166 0 l0 128 l-166 0 l0 32 l-142 0 l0 -32 l-160 0 l0 -128 l160 0 l0 -36 l-156 0 l0 -130 l156 0 l0 -38 l-172 0 l0 -130 l96 0 l-84 -66 l182 0 l80 66 l0 0 l0 0 ZM228 -69 l0 157 l212 0 l0 -165 l144 0 l0 165 l216 0 l0 -32 l-72 0 l0 -125 l216 0 l0 287 l-360 0 l0 38 l-144 0 l0 -38 l-360 0 l0 -287 l148 0 l0 0 l0 0 ZM716 268 l0 394 l70 0 l-46 -132 l76 0 l0 -98 l-56 0 l0 -124 l194 0 l0 308 l-34 0 l54 176 l-396 0 l0 -524 l138 0 l0 0 l0 0 Z" /><glyph glyph-name="" unicode="&#x6886;" d="M576 238 l0 128 l58 0 l0 132 l-58 0 l0 104 l70 0 l0 132 l-70 0 l0 72 l-128 0 l0 -72 l-66 0 l0 -132 l66 0 l0 -104 l-60 0 l0 -132 l60 0 l0 -128 l-78 0 l0 -136 l54 0 l-68 -169 l136 0 l64 169 l90 0 l0 136 l-70 0 l0 0 l0 0 ZM348 702 l-58 0 l0 104 l-126 0 l0 -104 l-112 0 l0 -132 l112 0 l0 -637 l126 0 l0 323 l56 -66 l0 198 l-56 66 l0 116 l58 0 l0 132 l0 0 l0 0 ZM132 -13 l28 523 l-102 0 l-28 -523 l102 0 l0 0 l0 0 ZM804 -67 l0 717 l44 0 l-36 -272 l40 0 l0 -248 l-26 0 l0 -135 l142 0 l0 461 l-20 0 l44 334 l-314 0 l0 -857 l126 0 l0 0 l0 0 Z" /><glyph glyph-name="" unicode="&#x699c;" d="M612 404 l22 -40 l-198 0 l0 -124 l66 0 l0 -76 l-98 -231 l154 0 l62 151 l204 0 l0 -36 l-116 0 l0 -115 l246 0 l16 273 l-328 0 l0 34 l334 0 l0 124 l-186 0 l-24 40 l-154 0 l0 0 l0 0 ZM756 564 l-96 0 l-32 50 l-154 0 l30 -50 l-76 0 l0 -164 l144 0 l0 42 l262 0 l0 -42 l142 0 l0 164 l-68 0 l30 50 l-150 0 l-32 -50 l0 0 l0 0 ZM436 642 l540 0 l0 122 l-206 0 l-14 42 l-158 0 l16 -42 l-178 0 l0 -122 l0 0 l0 0 ZM158 -13 l28 531 l-118 0 l-28 -531 l118 0 l0 0 l0 0 ZM402 710 l-60 0 l0 96 l-142 0 l0 -96 l-150 0 l0 -132 l150 0 l0 -645 l142 0 l0 297 l58 -92 l0 202 l-58 92 l0 146 l60 0 l0 132 l0 0 l0 0 Z" /><glyph glyph-name="" unicode="&#x8180;" d="M392 782 l-328 0 l0 -622 l-40 -227 l142 0 l42 219 l0 38 l40 0 l0 -124 l-32 0 l0 -133 l176 0 l0 849 l0 0 l0 0 ZM208 322 l0 100 l40 0 l0 -100 l-40 0 l0 0 l0 0 ZM208 554 l0 96 l40 0 l0 -96 l-40 0 l0 0 l0 0 ZM436 642 l540 0 l0 122 l-206 0 l-14 42 l-158 0 l16 -42 l-178 0 l0 -122 l0 0 l0 0 ZM756 562 l-96 0 l-32 50 l-154 0 l30 -50 l-76 0 l0 -162 l144 0 l0 42 l262 0 l0 -42 l142 0 l0 162 l-68 0 l30 50 l-150 0 l-32 -50 l0 0 l0 0 ZM612 404 l22 -40 l-198 0 l0 -124 l66 0 l0 -76 l-88 -231 l154 0 l52 151 l204 0 l0 -36 l-116 0 l0 -115 l246 0 l16 273 l-328 0 l0 34 l334 0 l0 124 l-186 0 l-24 40 l-154 0 l0 0 l0 0 Z" /><glyph glyph-name="" unicode="&#x7ed1;" d="M182 558 l82 248 l-140 0 l-116 -380 l134 0 l-114 -224 l302 0 l0 136 l-86 0 l134 284 l-138 0 l-30 -64 l-28 0 l0 0 l0 0 ZM42 -55 l294 85 l0 138 l-294 -86 l0 -137 l0 0 l0 0 ZM576 238 l0 128 l58 0 l0 132 l-58 0 l0 104 l70 0 l0 132 l-70 0 l0 72 l-128 0 l0 -72 l-66 0 l0 -132 l66 0 l0 -104 l-60 0 l0 -132 l60 0 l0 -128 l-78 0 l0 -136 l54 0 l-68 -169 l136 0 l64 169 l90 0 l0 136 l-70 0 l0 0 l0 0 ZM804 -67 l0 717 l44 0 l-36 -272 l40 0 l0 -248 l-26 0 l0 -135 l142 0 l0 461 l-20 0 l44 334 l-310 0 l0 -857 l122 0 l0 0 l0 0 Z" /><glyph glyph-name="" unicode="&#x68d2;" d="M450 352 l-76 -76 l180 0 l64 76 l128 0 l72 -72 l176 0 l-68 72 l42 0 l0 118 l-286 0 l8 34 l258 0 l0 112 l-230 0 l4 32 l246 0 l0 116 l-226 0 l6 42 l-152 0 l-6 -42 l-210 0 l0 -116 l188 0 l-4 -32 l-156 0 l0 -112 l130 0 l-12 -34 l-138 0 l0 -118 l62 0 l0 0 l0 0 ZM752 302 l-148 0 l0 -56 l-188 0 l0 -120 l188 0 l0 -34 l-232 0 l0 -119 l232 0 l0 -40 l148 0 l0 40 l216 0 l0 119 l-216 0 l0 34 l184 0 l0 120 l-184 0 l0 56 l0 0 l0 0 ZM352 702 l-46 0 l0 104 l-146 0 l0 -104 l-108 0 l0 -132 l108 0 l0 -637 l146 0 l0 323 l56 -66 l0 198 l-56 66 l0 116 l46 0 l0 132 l0 0 l0 0 ZM132 -13 l22 523 l-102 0 l-22 -523 l102 0 l0 0 l0 0 Z" /><glyph glyph-name="" unicode="&#x78c5;" d="M222 506 l46 120 l126 0 l0 136 l-356 0 l0 -136 l80 0 l-114 -328 l62 0 l0 -345 l314 0 l0 553 l-158 0 l0 0 l0 0 ZM204 370 l38 0 l0 -284 l-38 0 l0 284 l0 0 l0 0 ZM428 642 l544 0 l0 122 l-208 0 l-14 42 l-160 0 l18 -42 l-180 0 l0 -122 l0 0 l0 0 ZM750 562 l-96 0 l-32 50 l-156 0 l30 -50 l-76 0 l0 -162 l144 0 l0 42 l264 0 l0 -42 l144 0 l0 162 l-68 0 l30 50 l-152 0 l-32 -50 l0 0 l0 0 ZM606 404 l22 -40 l-200 0 l0 -124 l66 0 l0 -76 l-88 -231 l154 0 l54 151 l204 0 l0 -36 l-116 0 l0 -115 l248 0 l16 273 l-330 0 l0 34 l336 0 l0 124 l-188 0 l-24 40 l-154 0 l0 0 l0 0 Z" /><glyph glyph-name="" unicode="&#x868c;" d="M672 598 l0 -156 l-134 0 l0 -136 l134 0 l0 -180 l-154 0 l0 -131 l154 0 l0 -62 l146 0 l0 62 l158 0 l0 131 l-158 0 l0 180 l142 0 l0 136 l-142 0 l0 156 l158 0 l0 132 l-158 0 l0 76 l-146 0 l0 -76 l-154 0 l0 -132 l154 0 l0 0 l0 0 ZM478 204 l-120 0 l8 -118 l-28 0 l0 174 l140 0 l0 456 l-140 0 l0 98 l-138 0 l0 -98 l-136 0 l0 -456 l136 0 l0 -174 l-146 0 l0 -129 l444 0 l-20 247 l0 0 l0 0 ZM324 580 l36 0 l0 -188 l-36 0 l0 188 l0 0 l0 0 ZM216 392 l-34 0 l0 188 l34 0 l0 -188 l0 0 l0 0 Z" /><glyph glyph-name="" unicode="&#x508d;" d="M304 642 l660 0 l0 122 l-250 0 l-22 42 l-162 0 l22 -42 l-248 0 l0 -122 l0 0 l0 0 ZM696 562 l-120 0 l-32 54 l-162 0 l32 -54 l-118 0 l0 -162 l154 0 l0 42 l366 0 l0 -42 l148 0 l0 162 l-104 0 l34 54 l-156 0 l-42 -54 l0 0 l0 0 ZM540 410 l26 -46 l-262 0 l0 -124 l88 0 l0 -76 l-122 -231 l166 0 l76 151 l292 0 l-4 -36 l-164 0 l0 -115 l306 0 l16 273 l-424 0 l0 34 l430 0 l0 124 l-238 0 l-28 46 l-158 0 l0 0 l0 0 ZM150 806 l-150 -416 l98 0 l0 -457 l148 0 l0 545 l-62 0 l124 328 l-158 0 l0 0 l0 0 Z" /><glyph glyph-name="" unicode="&#x8c24;" d="M324 642 l640 0 l0 122 l-242 0 l-22 42 l-158 0 l22 -42 l-240 0 l0 -122 l0 0 l0 0 ZM704 562 l-116 0 l-32 54 l-158 0 l32 -54 l-114 0 l0 -162 l148 0 l0 42 l356 0 l0 -42 l144 0 l0 162 l-102 0 l34 54 l-152 0 l-40 -54 l0 0 l0 0 ZM550 410 l26 -46 l-252 0 l0 -124 l84 0 l0 -76 l-118 -231 l162 0 l74 151 l282 0 l-4 -36 l-158 0 l0 -115 l296 0 l16 273 l-412 0 l0 34 l418 0 l0 124 l-236 0 l-28 46 l-150 0 l0 0 l0 0 ZM52 -87 l252 163 l0 156 l-72 -48 l0 366 l-196 0 l0 -122 l56 0 l0 -324 l-40 -30 l0 -161 l0 0 l0 0 ZM82 656 l188 -116 l0 150 l-188 118 l0 -152 l0 0 l0 0 Z" /><glyph glyph-name="" unicode="&#x82de;" d="M926 -67 l54 167 l-142 0 l-16 -46 l-582 0 l0 56 l480 0 l0 266 l-628 0 l0 -443 l834 0 l0 0 l0 0 ZM752 150 l174 0 l32 416 l-696 0 l12 34 l-146 0 l-78 -196 l156 0 l16 40 l576 0 l-8 -174 l-38 0 l0 -120 l0 0 l0 0 ZM608 810 l0 -38 l-192 0 l0 38 l-148 0 l0 -38 l-214 0 l0 -120 l214 0 l0 -42 l148 0 l0 42 l192 0 l0 -42 l148 0 l0 42 l214 0 l0 120 l-214 0 l0 38 l-148 0 l0 0 l0 0 ZM572 266 l0 -44 l-332 0 l0 44 l332 0 l0 0 l0 0 Z" /><glyph glyph-name="" unicode="&#x80de;" d="M396 782 l-328 0 l0 -622 l-40 -227 l140 0 l40 219 l0 38 l48 0 l0 -124 l-40 0 l0 -133 l180 0 l0 849 l0 0 l0 0 ZM928 -67 l44 183 l-136 0 l-14 -50 l-248 0 l0 104 l178 0 l0 380 l-312 0 l0 -617 l488 0 l0 0 l0 0 ZM576 638 l238 0 l-6 -344 l-26 0 l0 -136 l160 0 l24 608 l-344 0 l14 40 l-146 0 l-88 -226 l158 0 l16 58 l0 0 l0 0 ZM618 422 l0 -124 l-44 0 l0 124 l44 0 l0 0 l0 0 ZM208 322 l0 96 l48 0 l0 -96 l-48 0 l0 0 l0 0 ZM208 554 l0 92 l48 0 l0 -92 l-48 0 l0 0 l0 0 Z" /><glyph glyph-name="" unicode="&#x5305;" d="M88 -67 l844 0 l48 193 l-148 0 l-16 -62 l-580 0 l0 118 l432 0 l0 364 l-580 0 l0 -613 l0 0 l0 0 ZM720 178 l206 0 l28 588 l-674 0 l24 40 l-162 0 l-124 -232 l160 0 l32 58 l588 0 l-16 -320 l-62 0 l0 -134 l0 0 l0 0 ZM520 412 l0 -100 l-284 0 l0 100 l284 0 l0 0 l0 0 Z" /><glyph glyph-name="" unicode="&#x8912;" d="M958 202 l0 90 l-156 38 l156 0 l0 94 l-274 0 l0 32 l232 0 l0 192 l-600 0 l0 -192 l228 0 l0 -32 l-264 0 l0 -96 l146 0 l-146 -34 l0 -90 l264 74 l0 -68 l140 0 l0 76 l274 -84 l0 0 l0 0 ZM310 34 l0 38 l192 32 l0 102 l-442 -64 l0 -104 l106 16 l0 -30 l-50 -4 l0 -103 l480 30 l0 107 l-286 -20 l0 0 l0 0 ZM786 176 l-52 -52 l-194 76 l0 -112 l404 -157 l0 111 l-84 30 l84 104 l-158 0 l0 0 l0 0 ZM236 500 l-16 0 l86 150 l-144 0 l-132 -216 l64 0 l0 -236 l142 0 l0 302 l0 0 l0 0 ZM460 570 l312 0 l0 -38 l-312 0 l0 38 l0 0 l0 0 ZM966 680 l0 92 l-374 0 l-12 34 l-168 0 l12 -34 l-366 0 l0 -92 l908 0 l0 0 l0 0 Z" /><glyph glyph-name="" unicode="&#x5265;" d="M262 130 l0 -78 l-58 0 l0 -119 l204 0 l0 159 l204 -157 l0 159 l-78 66 l94 148 l-136 0 l-52 -84 l-32 20 l0 114 l220 0 l0 118 l-32 0 l0 314 l-542 0 l0 -122 l396 0 l0 -34 l-380 0 l0 -122 l380 0 l0 -36 l-408 0 l0 -118 l220 0 l0 -68 l-54 -42 l-46 60 l-138 0 l96 -144 l-78 -68 l0 -157 l220 191 l0 0 l0 0 ZM658 762 l0 -632 l130 0 l0 632 l-130 0 l0 0 l0 0 ZM966 -67 l0 881 l-142 0 l0 -744 l-114 0 l0 -137 l256 0 l0 0 l0 0 Z" /><glyph glyph-name="" unicode="&#x8584;" d="M946 506 l-256 0 l0 30 l146 0 l0 78 l-146 0 l0 30 l-144 0 l0 -30 l-264 0 l0 -78 l264 0 l0 -30 l-256 0 l0 -316 l146 0 l0 32 l110 0 l0 -32 l144 0 l0 32 l118 0 l0 -32 l138 0 l0 316 l0 0 l0 0 ZM772 696 l192 0 l0 92 l-192 0 l0 22 l-148 0 l0 -22 l-208 0 l0 22 l-148 0 l0 -22 l-206 0 l0 -92 l206 0 l0 -30 l148 0 l0 30 l208 0 l0 -28 l148 0 l0 28 l0 0 l0 0 ZM272 144 l0 -92 l492 0 l0 -40 l-168 0 l0 -83 l316 0 l0 123 l52 0 l0 92 l-52 0 l0 24 l-148 0 l0 -24 l-492 0 l0 0 l0 0 ZM188 -55 l74 257 l-134 0 l-78 -257 l138 0 l0 0 l0 0 ZM64 324 l162 -96 l0 152 l-162 96 l0 -152 l0 0 l0 0 ZM90 524 l162 -100 l0 154 l-162 96 l0 -150 l0 0 l0 0 ZM864 546 l120 0 l-36 104 l-118 0 l34 -104 l0 0 l0 0 ZM384 -55 l148 0 l-54 79 l-148 0 l54 -79 l0 0 l0 0 ZM690 326 l114 0 l0 -32 l-114 0 l0 32 l0 0 l0 0 ZM436 326 l110 0 l0 -32 l-110 0 l0 32 l0 0 l0 0 ZM690 430 l114 0 l0 -32 l-114 0 l0 32 l0 0 l0 0 ZM436 430 l110 0 l0 -32 l-110 0 l0 32 l0 0 l0 0 Z" /><glyph glyph-name="" unicode="&#x96f9;" d="M262 72 l472 0 l0 208 l-532 0 l14 42 l594 0 l-6 -110 l-38 0 l0 -114 l168 0 l16 324 l-702 0 l8 22 l-148 0 l-64 -174 l74 0 l0 -337 l812 0 l42 127 l-152 0 l-14 -34 l-544 0 l0 46 l0 0 l0 0 ZM590 192 l0 -32 l-328 0 l0 32 l328 0 l0 0 l0 0 ZM942 694 l0 96 l-864 0 l0 -96 l360 0 l0 -32 l-364 0 l0 -188 l140 0 l0 92 l224 0 l0 -88 l148 0 l0 88 l220 0 l0 -92 l140 0 l0 188 l-360 0 l0 32 l356 0 l0 0 l0 0 ZM386 536 l-150 0 l38 -78 l154 0 l-42 78 l0 0 l0 0 ZM756 536 l-150 0 l38 -78 l154 0 l-42 78 l0 0 l0 0 Z" /><glyph glyph-name="" unicode="&#x4fdd;" d="M976 360 l-272 0 l0 64 l256 0 l0 366 l-660 0 l0 -366 l256 0 l0 -64 l-272 0 l0 -136 l272 0 l0 -293 l148 0 l0 293 l272 0 l0 136 l0 0 l0 0 ZM146 806 l-130 -396 l72 0 l0 -479 l148 0 l0 547 l-44 0 l98 328 l-144 0 l0 0 l0 0 ZM448 656 l364 0 l0 -98 l-364 0 l0 98 l0 0 l0 0 ZM262 -51 l154 0 l108 237 l-150 0 l-112 -237 l0 0 l0 0 ZM836 -51 l154 0 l-108 237 l-152 0 l106 -237 l0 0 l0 0 Z" /><glyph glyph-name="" unicode="&#x5821;" d="M688 398 l272 0 l0 104 l-272 0 l0 42 l242 0 l0 246 l-634 0 l0 -246 l244 0 l0 -42 l-272 0 l0 -104 l272 0 l0 -100 l0 -50 l148 0 l0 150 l0 0 l0 0 ZM102 186 l0 -106 l334 0 l0 -38 l-366 0 l0 -109 l894 0 l0 109 l-380 0 l0 38 l342 0 l0 106 l-342 0 l0 36 l-148 0 l0 -36 l-334 0 l0 0 l0 0 ZM128 806 l-104 -284 l66 0 l0 -288 l146 0 l0 336 l-44 0 l80 236 l-144 0 l0 0 l0 0 ZM432 686 l360 0 l0 -38 l-360 0 l0 38 l0 0 l0 0 ZM510 388 l-242 -56 l0 -110 l242 60 l0 106 l0 0 l0 0 ZM718 280 l240 -62 l0 110 l-240 60 l0 -108 l0 0 l0 0 Z" /><glyph glyph-name="" unicode="&#x9971;" d="M422 -55 l526 0 l40 191 l-144 0 l-18 -58 l-266 0 l0 104 l196 0 l0 362 l-334 0 l0 -599 l0 0 l0 0 ZM248 728 l22 84 l-138 0 l-104 -416 l102 0 l0 -296 l-44 -26 l0 -157 l300 149 l0 162 l-112 -60 l0 288 l-88 0 l34 136 l36 0 l-18 -90 l124 0 l44 226 l-158 0 l0 0 l0 0 ZM564 654 l266 0 l-14 -340 l-30 0 l0 -136 l160 0 l26 612 l-372 0 l6 22 l-134 0 l-76 -234 l144 0 l24 76 l0 0 l0 0 ZM618 408 l0 -90 l-58 0 l0 90 l58 0 l0 0 l0 0 Z" /><glyph glyph-name="" unicode="&#x5b9d;" d="M584 66 l0 116 l332 0 l0 132 l-332 0 l0 88 l364 0 l0 136 l-868 0 l0 -136 l360 0 l0 -88 l-320 0 l0 -132 l320 0 l0 -116 l-376 0 l0 -127 l900 0 l0 127 l-72 0 l-42 84 l-158 0 l40 -84 l-148 0 l0 0 l0 0 ZM216 640 l592 0 l0 -68 l144 0 l0 200 l-358 0 l-20 42 l-168 0 l16 -42 l-350 0 l0 -200 l144 0 l0 68 l0 0 l0 0 Z" /><glyph glyph-name="" unicode="&#x62b1;" d="M942 -55 l34 181 l-146 0 l-12 -48 l-282 0 l0 104 l204 0 l0 368 l-352 0 l0 -605 l554 0 l0 0 l0 0 ZM60 66 l0 -133 l220 0 l0 317 l72 28 l0 152 l-72 -28 l0 132 l52 0 l0 136 l-52 0 l0 136 l-148 0 l0 -136 l-74 0 l0 -136 l74 0 l0 -184 l-76 -30 l0 -150 l76 30 l0 -134 l-72 0 l0 0 l0 0 ZM514 636 l306 0 l-10 -340 l-40 0 l0 -136 l176 0 l20 612 l-414 0 l8 34 l-138 0 l-76 -230 l148 0 l20 60 l0 0 l0 0 ZM592 414 l0 -96 l-56 0 l0 96 l56 0 l0 0 l0 0 Z" /><glyph glyph-name="" unicode="&#x62a5;" d="M822 306 l-72 -100 l-34 42 l-170 0 l116 -144 l-136 -171 l174 0 l54 67 l56 -67 l170 0 l-138 169 l128 180 l0 156 l-456 0 l0 216 l308 0 l-4 -40 l-200 0 l0 -132 l338 0 l20 308 l-610 0 l0 -857 l148 0 l0 373 l308 0 l0 0 l0 0 ZM66 -67 l206 0 l0 317 l64 24 l0 150 l-64 -24 l0 134 l64 0 l0 136 l-64 0 l0 136 l-148 0 l0 -136 l-64 0 l0 -136 l64 0 l0 -184 l-68 -26 l0 -150 l68 26 l0 -134 l-58 0 l0 -133 l0 0 l0 0 Z" /><glyph glyph-name="" unicode="&#x66b4;" d="M450 10 l-74 0 l0 -85 l218 0 l0 93 l350 -93 l0 105 l-184 50 l28 46 l32 -32 l162 0 l-104 104 l88 0 l0 104 l-196 0 l0 30 l184 0 l0 104 l-184 0 l0 30 l166 0 l0 324 l-848 0 l0 -324 l166 0 l0 -30 l-184 0 l0 -104 l184 0 l0 -30 l-192 0 l0 -104 l88 0 l-110 -108 l162 0 l36 34 l24 -36 l-182 -54 l0 -107 l370 107 l0 -24 l0 0 l0 0 ZM708 198 l26 -26 l-60 0 l-40 -54 l-40 10 l0 44 l-144 0 l0 -30 l-62 -16 l-32 46 l-58 0 l26 26 l384 0 l0 0 l0 0 ZM788 588 l0 -32 l-552 0 l0 32 l552 0 l0 0 l0 0 ZM236 668 l0 32 l552 0 l0 -32 l-552 0 l0 0 l0 0 ZM622 436 l-220 0 l0 30 l220 0 l0 -30 l0 0 l0 0 ZM622 302 l-220 0 l0 30 l220 0 l0 -30 l0 0 l0 0 Z" /><glyph glyph-name="" unicode="&#x8c79;" d="M640 618 l178 0 l-8 -552 l-166 0 l0 -133 l312 0 l8 821 l-284 0 l16 52 l-140 0 l-112 -344 l142 0 l54 156 l0 0 l0 0 ZM762 170 l-96 252 l-150 0 l94 -252 l152 0 l0 0 l0 0 ZM452 694 l0 120 l-384 -58 l0 -126 l384 64 l0 0 l0 0 ZM260 550 l-24 -18 l-42 70 l-136 0 l80 -140 l-66 -52 l0 -142 l232 170 l10 -30 l-236 -172 l0 -124 l268 198 l8 -34 l-276 -200 l0 -125 l276 197 l-10 -92 l-106 0 l0 -123 l228 0 l36 343 l-84 238 l38 30 l0 142 l-86 -66 l-10 26 l-142 0 l42 -96 l0 0 l0 0 Z" /><glyph glyph-name="" unicode="&#x7206;" d="M292 806 l-134 0 l0 -570 l-120 -307 l130 0 l78 177 l82 -100 l0 194 l-36 46 l0 202 l38 52 l0 208 l-38 -48 l0 146 l0 0 l0 0 ZM772 206 l62 -50 l158 0 l-60 50 l42 0 l0 100 l-128 0 l0 30 l120 0 l0 96 l-120 0 l0 30 l116 0 l0 328 l-602 0 l0 -328 l116 0 l0 -30 l-124 0 l0 -96 l124 0 l0 -30 l-132 0 l0 -100 l54 0 l-66 -50 l166 0 l62 50 l212 0 l0 0 l0 0 ZM594 34 l0 -28 l-54 0 l0 -77 l196 0 l0 103 l230 -115 l0 109 l-54 28 l46 70 l-136 0 l-16 -18 l-70 36 l0 38 l-142 0 l0 -40 l-72 -32 l-14 16 l-150 0 l52 -68 l-62 -30 l0 -105 l246 113 l0 0 l0 0 ZM824 588 l0 -34 l-326 0 l0 34 l326 0 l0 0 l0 0 ZM498 664 l0 34 l326 0 l0 -34 l-326 0 l0 0 l0 0 ZM704 306 l-86 0 l0 30 l86 0 l0 -30 l0 0 l0 0 ZM704 432 l-86 0 l0 30 l86 0 l0 -30 l0 0 l0 0 ZM126 702 l-98 0 l20 -366 l98 0 l-20 366 l0 0 l0 0 Z" /><glyph glyph-name="" unicode="&#x676f;" d="M428 710 l-78 0 l0 96 l-148 0 l0 -96 l-136 0 l0 -136 l136 0 l0 -641 l148 0 l0 325 l64 -76 l0 214 l-64 68 l0 110 l78 0 l0 136 l0 0 l0 0 ZM152 -21 l30 531 l-114 0 l-32 -531 l116 0 l0 0 l0 0 ZM642 330 l0 -397 l148 0 l0 629 l-42 0 l40 92 l190 0 l0 136 l-520 0 l0 -136 l168 0 l-238 -552 l154 0 l100 228 l0 0 l0 0 ZM972 70 l0 208 l-152 194 l0 -210 l152 -192 l0 0 l0 0 Z" /><glyph glyph-name="" unicode="&#x7891;" d="M246 520 l44 120 l98 0 l0 136 l-326 0 l0 -136 l78 0 l-124 -328 l60 0 l0 -339 l312 0 l0 547 l-142 0 l0 0 l0 0 ZM216 384 l32 0 l0 -276 l-32 0 l0 276 l0 0 l0 0 ZM722 276 l244 0 l0 500 l-212 0 l12 34 l-152 0 l-16 -34 l-180 0 l0 -500 l122 0 l-124 -110 l186 0 l120 110 l0 0 l0 0 ZM422 134 l0 -132 l234 0 l0 -75 l148 0 l0 75 l170 0 l0 132 l-170 0 l0 56 l-148 0 l0 -56 l-234 0 l0 0 l0 0 ZM764 650 l56 0 l0 -60 l-56 0 l0 60 l0 0 l0 0 ZM564 650 l56 0 l0 -60 l-56 0 l0 60 l0 0 l0 0 ZM620 402 l-56 0 l0 60 l56 0 l0 -60 l0 0 l0 0 ZM820 402 l-56 0 l0 60 l56 0 l0 -60 l0 0 l0 0 Z" /><glyph glyph-name="" unicode="&#x60b2;" d="M72 486 l250 0 l0 -38 l-262 0 l0 -132 l262 0 l0 -34 l148 0 l0 526 l-148 0 l0 -32 l-262 0 l0 -126 l262 0 l0 -38 l-250 0 l0 -126 l0 0 l0 0 ZM698 650 l262 0 l0 126 l-262 0 l0 32 l-148 0 l0 -526 l148 0 l0 34 l262 0 l0 132 l-262 0 l0 38 l250 0 l0 126 l-250 0 l0 38 l0 0 l0 0 ZM788 196 l58 -241 l152 0 l-60 241 l-150 0 l0 0 l0 0 ZM98 196 l-58 -241 l148 0 l58 241 l-148 0 l0 0 l0 0 ZM420 252 l46 -136 l154 0 l-52 136 l-148 0 l0 0 l0 0 ZM416 66 l0 150 l-148 0 l0 -283 l504 0 l0 263 l-144 0 l0 -130 l-212 0 l0 0 l0 0 Z" /><glyph glyph-name="" unicode="&#x5351;" d="M510 234 l432 0 l0 534 l-394 0 l20 40 l-166 0 l-24 -40 l-292 0 l0 -534 l218 0 l-128 -72 l212 0 l122 72 l0 0 l0 0 ZM494 130 l-430 0 l0 -135 l430 0 l0 -68 l148 0 l0 68 l322 0 l0 135 l-322 0 l0 60 l-148 0 l0 -60 l0 0 l0 0 ZM794 370 l-208 0 l0 64 l208 0 l0 -64 l0 0 l0 0 ZM438 370 l-204 0 l0 64 l204 0 l0 -64 l0 0 l0 0 ZM234 632 l204 0 l0 -64 l-204 0 l0 64 l0 0 l0 0 ZM586 632 l208 0 l0 -64 l-208 0 l0 64 l0 0 l0 0 Z" /><glyph glyph-name="" unicode="&#x5317;" d="M68 -29 l192 89 l0 -133 l148 0 l0 879 l-148 0 l0 -152 l-196 0 l0 -136 l196 0 l0 -302 l-192 -94 l0 -151 l0 0 l0 0 ZM752 806 l-148 0 l0 -873 l328 0 l66 233 l-142 0 l-34 -100 l-70 0 l0 408 l212 112 l0 156 l-212 -110 l0 174 l0 0 l0 0 Z" /><glyph glyph-name="" unicode="&#x8f88;" d="M280 200 l46 50 l622 0 l0 102 l-538 0 l26 32 l-148 0 l-30 -32 l-182 0 l0 -102 l86 0 l-82 -86 l0 -66 l372 0 l0 -36 l-384 0 l0 -101 l384 0 l0 -32 l148 0 l0 32 l360 0 l0 101 l-360 0 l0 36 l328 0 l0 102 l-328 0 l0 20 l-148 0 l0 -20 l-172 0 l0 0 l0 0 ZM948 528 l-248 0 l0 30 l236 0 l0 96 l-236 0 l0 30 l248 0 l0 96 l-248 0 l0 28 l-148 0 l0 -400 l148 0 l0 24 l248 0 l0 96 l0 0 l0 0 ZM470 808 l-148 0 l0 -28 l-248 0 l0 -96 l248 0 l0 -30 l-236 0 l0 -96 l236 0 l0 -30 l-248 0 l0 -96 l248 0 l0 -24 l148 0 l0 400 l0 0 l0 0 Z" /><glyph glyph-name="" unicode="&#x80cc;" d="M790 66 l0 -42 l-132 0 l0 -93 l280 0 l0 521 l-846 0 l0 -521 l148 0 l0 135 l550 0 l0 0 l0 0 ZM824 602 l-128 0 l0 36 l248 40 l0 110 l-248 -40 l0 58 l-144 0 l0 -324 l380 0 l42 150 l-138 0 l-12 -30 l0 0 l0 0 ZM64 492 l252 36 l0 -46 l144 0 l0 324 l-144 0 l0 -30 l-244 0 l0 -112 l244 0 l0 -26 l-252 -34 l0 -112 l0 0 l0 0 ZM240 202 l550 0 l0 -40 l-550 0 l0 40 l0 0 l0 0 ZM240 338 l550 0 l0 -40 l-550 0 l0 40 l0 0 l0 0 Z" /><glyph glyph-name="" unicode="&#x8d1d;" d="M96 200 l148 0 l0 454 l548 0 l0 -454 l148 0 l0 590 l-844 0 l0 -590 l0 0 l0 0 ZM68 -79 l444 183 l452 -185 l0 155 l-376 150 l0 348 l-148 0 l0 -342 l-372 -156 l0 -153 l0 0 l0 0 Z" /><glyph glyph-name="" unicode="&#x500d;" d="M336 302 l0 -369 l616 0 l0 369 l-616 0 l0 0 l0 0 ZM724 482 l-148 0 l-60 116 l-164 0 l60 -116 l-116 0 l0 -136 l684 0 l0 136 l-94 0 l52 116 l-160 0 l-54 -116 l0 0 l0 0 ZM484 64 l0 108 l320 0 l0 -108 l-320 0 l0 0 l0 0 ZM692 806 l-160 0 l14 -38 l-222 0 l0 -136 l628 0 l0 136 l-246 0 l-14 38 l0 0 l0 0 ZM20 396 l80 0 l0 -467 l148 0 l0 555 l-48 0 l100 322 l-150 0 l-130 -410 l0 0 l0 0 Z" /><glyph glyph-name="" unicode="&#x72c8;" d="M408 790 l0 -630 l148 0 l0 494 l260 0 l0 -494 l148 0 l0 630 l-556 0 l0 0 l0 0 ZM404 -81 l286 131 l278 -131 l0 145 l-208 98 l0 416 l-148 0 l0 -416 l-208 -96 l0 -147 l0 0 l0 0 ZM204 396 l-184 -268 l156 0 l26 38 l-10 -100 l-102 0 l0 -133 l244 0 l32 449 l-66 210 l106 210 l-142 0 l-32 -60 l-22 66 l-152 0 l76 -210 l-120 -206 l150 0 l30 52 l10 -48 l0 0 l0 0 Z" /><glyph glyph-name="" unicode="&#x5907;" d="M936 -67 l0 421 l-844 0 l0 -421 l844 0 l0 0 l0 0 ZM516 456 l456 -98 l0 122 l-224 48 l196 52 l0 206 l-688 0 l8 24 l-134 0 l-86 -264 l142 0 l42 124 l568 0 l0 -18 l-256 -62 l-288 62 l0 -120 l48 -10 l-244 -58 l0 -116 l460 108 l0 0 l0 0 ZM240 232 l204 0 l0 -36 l-204 0 l0 36 l0 0 l0 0 ZM592 232 l196 0 l0 -36 l-196 0 l0 36 l0 0 l0 0 ZM444 54 l-204 0 l0 36 l204 0 l0 -36 l0 0 l0 0 ZM788 54 l-196 0 l0 36 l196 0 l0 -36 l0 0 l0 0 Z" /><glyph glyph-name="" unicode="&#x60eb;" d="M930 138 l0 340 l-832 0 l0 -340 l832 0 l0 0 l0 0 ZM502 540 l466 -60 l0 94 l-158 16 l124 20 l0 178 l-682 0 l8 20 l-130 0 l-78 -182 l138 0 l28 66 l568 0 l0 -14 l-260 -36 l-256 30 l0 -68 l-220 -28 l0 -100 l452 64 l0 0 l0 0 ZM586 236 l0 32 l196 0 l0 -32 l-196 0 l0 0 l0 0 ZM782 382 l0 -32 l-196 0 l0 32 l196 0 l0 0 l0 0 ZM246 350 l0 32 l192 0 l0 -32 l-192 0 l0 0 l0 0 ZM246 268 l192 0 l0 -32 l-192 0 l0 32 l0 0 l0 0 ZM178 -59 l54 155 l-136 0 l-56 -155 l138 0 l0 0 l0 0 ZM856 -59 l138 0 l-54 155 l-140 0 l56 -155 l0 0 l0 0 ZM480 56 l148 0 l-42 56 l-148 0 l42 -56 l0 0 l0 0 ZM378 26 l0 78 l-132 0 l0 -171 l548 0 l0 163 l-128 0 l0 -70 l-288 0 l0 0 l0 0 Z" /><glyph glyph-name="" unicode="&#x7119;" d="M434 -67 l524 0 l0 381 l-524 0 l0 -381 l0 0 l0 0 ZM978 346 l0 136 l-72 0 l46 128 l-152 0 l-50 -128 l-76 0 l-64 128 l-160 0 l56 -128 l-96 0 l0 -136 l568 0 l0 0 l0 0 ZM582 178 l228 0 l0 -112 l-228 0 l0 112 l0 0 l0 0 ZM594 806 l14 -32 l-170 0 l0 -134 l520 0 l0 134 l-188 0 l-16 32 l-160 0 l0 0 l0 0 ZM194 806 l0 -498 l-158 -377 l150 0 l102 235 l116 -158 l0 230 l-62 82 l0 138 l66 76 l0 200 l-66 -80 l0 152 l-148 0 l0 0 l0 0 ZM38 710 l34 -364 l100 0 l-34 364 l-100 0 l0 0 l0 0 Z" /><glyph glyph-name="" unicode="&#x88ab;" d="M236 410 l96 182 l0 78 l-280 0 l0 -120 l114 0 l-152 -288 l82 0 l0 -333 l132 0 l0 331 l162 -118 l0 166 l-30 22 l50 148 l-116 0 l-32 -86 l-26 18 l0 0 l0 0 ZM86 806 l58 -110 l148 0 l-60 110 l-146 0 l0 0 l0 0 ZM556 366 l268 0 l0 -40 l-68 -84 l-38 56 l-148 0 l96 -154 l-176 -211 l164 0 l92 107 l72 -107 l158 0 l-138 201 l122 156 l0 200 l-186 0 l0 140 l64 0 l-10 -92 l132 0 l18 212 l-204 0 l0 56 l-132 0 l0 -56 l-218 0 l0 -588 l-102 -233 l144 0 l90 209 l0 228 l0 0 l0 0 ZM556 630 l86 0 l0 -140 l-86 0 l0 140 l0 0 l0 0 Z" /><glyph glyph-name="" unicode="&#x5954;" d="M742 290 l0 -104 l-450 0 l0 104 l-144 0 l0 -104 l-80 0 l0 -132 l54 0 l-56 -121 l156 0 l52 121 l468 0 l0 -121 l144 0 l0 121 l78 0 l0 132 l-78 0 l0 104 l-144 0 l0 0 l0 0 ZM806 500 l192 0 l-152 128 l114 0 l0 132 l-444 0 l18 44 l-160 0 l-24 -44 l-278 0 l0 -132 l134 0 l-172 -128 l206 0 l168 128 l240 0 l158 -128 l0 0 l0 0 ZM88 470 l0 -132 l348 0 l0 -92 l144 0 l0 92 l356 0 l0 132 l-356 0 l0 80 l-144 0 l0 -80 l-348 0 l0 0 l0 0 Z" /><glyph glyph-name="" unicode="&#x672c;" d="M956 598 l0 136 l-368 0 l0 72 l-148 0 l0 -72 l-372 0 l0 -136 l372 0 l0 -388 l-172 0 l0 -136 l172 0 l0 -141 l148 0 l0 141 l164 0 l0 136 l-164 0 l0 388 l368 0 l0 0 l0 0 ZM38 -33 l148 0 l154 571 l-150 0 l-152 -571 l0 0 l0 0 ZM838 -33 l152 0 l-176 571 l-154 0 l178 -571 l0 0 l0 0 Z" /><glyph glyph-name="" unicode="&#x7b28;" d="M436 540 l0 -36 l-366 0 l0 -132 l366 0 l0 -208 l-140 0 l0 -132 l140 0 l0 -103 l144 0 l0 103 l136 0 l0 132 l-136 0 l0 208 l372 0 l0 132 l-372 0 l0 36 l-144 0 l0 0 l0 0 ZM884 638 l88 0 l0 128 l-230 0 l20 40 l-162 0 l-106 -236 l162 0 l32 68 l26 0 l50 -68 l170 0 l-50 68 l0 0 l0 0 ZM438 638 l76 0 l0 128 l-216 0 l20 40 l-162 0 l-118 -248 l162 0 l42 80 l26 0 l44 -68 l170 0 l-44 68 l0 0 l0 0 ZM54 -41 l150 0 l126 367 l-146 0 l-130 -367 l0 0 l0 0 ZM820 -41 l150 0 l-134 367 l-150 0 l134 -367 l0 0 l0 0 Z" /><glyph glyph-name="" unicode="&#x5d29;" d="M688 440 l112 0 l0 -46 l-112 0 l0 46 l0 0 l0 0 ZM228 440 l112 0 l0 -46 l-112 0 l0 46 l0 0 l0 0 ZM228 274 l112 0 l0 -46 l-112 0 l0 46 l0 0 l0 0 ZM688 274 l112 0 l0 -46 l-112 0 l0 46 l0 0 l0 0 ZM226 788 l-148 0 l0 -184 l880 0 l0 184 l-148 0 l0 -56 l-220 0 l0 76 l-148 0 l0 -76 l-216 0 l0 56 l0 0 l0 0 ZM800 66 l-70 0 l0 -133 l218 0 l0 633 l-408 0 l0 -446 l-32 -187 l148 0 l28 173 l116 0 l0 -40 l0 0 l0 0 ZM340 66 l-70 0 l0 -133 l218 0 l0 633 l-408 0 l0 -446 l-42 -187 l144 0 l36 173 l122 0 l0 -40 l0 0 l0 0 Z" /><glyph glyph-name="" unicode="&#x7ef7;" d="M318 594 l-114 0 l-14 -32 l-24 0 l74 232 l-106 0 l-108 -356 l114 0 l-102 -248 l244 0 l0 124 l-70 0 l106 280 l0 0 l0 0 ZM50 -71 l228 68 l0 137 l-228 -70 l0 -135 l0 0 l0 0 ZM784 140 l0 38 l46 0 l0 -120 l-38 0 l0 -125 l168 0 l0 857 l-304 0 l0 -662 l-28 -199 l122 0 l34 211 l0 0 l0 0 ZM400 -71 l48 211 l0 38 l44 0 l0 -120 l-32 0 l0 -125 l162 0 l0 857 l-302 0 l0 -676 l-44 -185 l124 0 l0 0 l0 0 ZM784 422 l46 0 l0 -112 l-46 0 l0 112 l0 0 l0 0 ZM448 422 l44 0 l0 -112 l-44 0 l0 112 l0 0 l0 0 ZM784 658 l46 0 l0 -104 l-46 0 l0 104 l0 0 l0 0 ZM448 658 l44 0 l0 -104 l-44 0 l0 104 l0 0 l0 0 Z" /><glyph glyph-name="" unicode="&#x6cf5;" d="M912 326 l0 300 l-564 0 l20 36 l596 0 l0 128 l-896 0 l0 -128 l140 0 l-174 -268 l160 0 l32 48 l0 -116 l686 0 l0 0 l0 0 ZM960 250 l-154 0 l-72 -104 l-128 104 l0 46 l-148 0 l0 -230 l-94 0 l0 -133 l242 0 l0 149 l176 -149 l212 0 l-154 133 l120 184 l0 0 l0 0 ZM34 -67 l178 0 l190 221 l0 104 l-336 0 l0 -132 l134 0 l-166 -193 l0 0 l0 0 ZM374 500 l390 0 l0 -48 l-390 0 l0 48 l0 0 l0 0 Z" /><glyph glyph-name="" unicode="&#x8e66;" d="M296 204 l56 0 l0 132 l-56 0 l0 82 l46 0 l0 372 l-278 0 l0 -372 l128 0 l0 -340 l-30 -4 l0 288 l-98 0 l0 -306 l-36 -6 l0 -123 l322 54 l0 123 l-54 -8 l0 108 l0 0 l0 0 ZM804 64 l0 42 l48 0 l0 -54 l-22 0 l0 -119 l134 0 l0 635 l-274 0 l0 -512 l-20 -127 l112 0 l22 135 l0 0 l0 0 ZM540 52 l-22 0 l0 -119 l134 0 l0 635 l-270 0 l0 -500 l-30 -139 l116 0 l26 123 l0 54 l46 0 l0 -54 l0 0 l0 0 ZM382 598 l582 0 l0 184 l-116 0 l0 -72 l-120 0 l0 96 l-116 0 l0 -96 l-114 0 l0 72 l-116 0 l0 -184 l0 0 l0 0 ZM174 666 l56 0 l0 -128 l-56 0 l0 128 l0 0 l0 0 ZM804 278 l48 0 l0 -56 l-48 0 l0 56 l0 0 l0 0 ZM802 450 l48 0 l0 -56 l-48 0 l0 56 l0 0 l0 0 ZM494 278 l46 0 l0 -56 l-46 0 l0 56 l0 0 l0 0 ZM494 450 l46 0 l0 -56 l-46 0 l0 56 l0 0 l0 0 Z" /><glyph glyph-name="" unicode="&#x903c;" d="M242 558 l0 158 l-188 102 l0 -158 l188 -102 l0 0 l0 0 ZM976 -67 l0 127 l-656 0 l-92 96 l0 382 l-186 0 l0 -136 l44 0 l0 -270 l-40 -46 l0 -179 l128 123 l94 -97 l708 0 l0 0 l0 0 ZM952 694 l0 96 l-652 0 l0 -96 l652 0 l0 0 l0 0 ZM468 544 l0 34 l320 0 l0 -34 l-320 0 l0 0 l0 0 ZM928 664 l-600 0 l0 -206 l600 0 l0 206 l0 0 l0 0 ZM956 92 l0 338 l-664 0 l0 -338 l664 0 l0 0 l0 0 ZM692 304 l0 36 l124 0 l0 -36 l-124 0 l0 0 l0 0 ZM816 218 l0 -36 l-124 0 l0 36 l124 0 l0 0 l0 0 ZM432 182 l0 36 l124 0 l0 -36 l-124 0 l0 0 l0 0 ZM556 304 l-124 0 l0 36 l124 0 l0 -36 l0 0 l0 0 Z" /><glyph glyph-name="" unicode="&#x9f3b;" d="M812 284 l-222 0 l0 30 l222 0 l0 -30 l0 0 l0 0 ZM784 704 l0 -30 l-536 0 l0 30 l536 0 l0 0 l0 0 ZM784 524 l0 -30 l-536 0 l0 30 l536 0 l0 0 l0 0 ZM784 614 l0 -30 l-536 0 l0 30 l536 0 l0 0 l0 0 ZM270 -69 l64 73 l366 0 l0 -73 l138 0 l0 73 l132 0 l0 84 l-908 0 l0 -84 l116 0 l-64 -73 l156 0 l0 0 l0 0 ZM72 120 l888 0 l0 268 l-888 0 l0 -268 l0 0 l0 0 ZM100 420 l832 0 l0 358 l-382 0 l10 30 l-160 0 l-16 -30 l-284 0 l0 -358 l0 0 l0 0 ZM812 194 l-222 0 l0 30 l222 0 l0 -30 l0 0 l0 0 ZM442 284 l-222 0 l0 30 l222 0 l0 -30 l0 0 l0 0 ZM442 194 l-222 0 l0 30 l222 0 l0 -30 l0 0 l0 0 Z" /><glyph glyph-name="" unicode="&#x6bd4;" d="M256 802 l-148 0 l0 -734 l-48 -12 l0 -133 l428 101 l0 138 l-232 -56 l0 372 l232 0 l0 136 l-232 0 l0 188 l0 0 l0 0 ZM700 806 l-148 0 l0 -867 l368 0 l76 251 l-140 0 l-44 -118 l-112 0 l0 392 l252 88 l0 146 l-252 -88 l0 196 l0 0 l0 0 Z" /><glyph glyph-name="" unicode="&#x9119;" d="M410 550 l188 0 l0 240 l-524 0 l0 -240 l200 0 l0 -30 l-224 0 l0 -100 l224 0 l0 -30 l-200 0 l0 -457 l532 0 l0 457 l-196 0 l0 30 l212 0 l0 100 l-212 0 l0 30 l0 0 l0 0 ZM196 286 l288 0 l0 -252 l-288 0 l0 252 l0 0 l0 0 ZM450 64 l0 192 l-220 0 l0 -192 l220 0 l0 0 l0 0 ZM472 688 l0 -36 l-272 0 l0 36 l272 0 l0 0 l0 0 ZM312 180 l56 0 l0 -40 l-56 0 l0 40 l0 0 l0 0 ZM832 662 l-56 -322 l64 0 l0 -250 l-46 0 l0 -125 l170 0 l0 501 l-52 0 l56 324 l-324 0 l0 -861 l120 0 l0 733 l68 0 l0 0 l0 0 Z" /><glyph glyph-name="" unicode="&#x7b14;" d="M806 58 l-262 0 l0 54 l420 36 l0 126 l-420 -34 l0 36 l400 30 l0 122 l-400 -30 l0 34 l388 30 l0 116 l-860 -52 l0 -124 l324 20 l0 -36 l-324 -24 l0 -120 l324 24 l0 -34 l-340 -30 l0 -128 l340 30 l0 -171 l524 0 l62 171 l-152 0 l-24 -46 l0 0 l0 0 ZM412 658 l94 0 l0 116 l-220 0 l20 36 l-156 0 l-112 -228 l152 0 l40 76 l18 0 l44 -68 l164 0 l-44 68 l0 0 l0 0 ZM848 658 l114 0 l0 116 l-240 0 l18 36 l-152 0 l-112 -228 l150 0 l40 76 l18 0 l52 -68 l168 0 l-56 68 l0 0 l0 0 Z" /><glyph glyph-name="" unicode="&#x5f7c;" d="M478 630 l128 0 l0 -108 l-128 0 l0 108 l0 0 l0 0 ZM330 188 l-62 -255 l148 0 l62 239 l0 214 l336 0 l0 -18 l-100 -116 l-50 70 l-160 0 l114 -172 l-190 -217 l178 0 l102 111 l80 -111 l166 0 l-154 211 l162 200 l0 178 l-208 0 l0 108 l64 0 l-10 -76 l146 0 l24 212 l-224 0 l0 42 l-148 0 l0 -42 l-276 0 l0 -578 l0 0 l0 0 ZM104 230 l0 -297 l148 0 l0 369 l-40 0 l92 208 l-152 0 l-126 -280 l78 0 l0 0 l0 0 ZM42 552 l156 0 l116 254 l-152 0 l-120 -254 l0 0 l0 0 Z" /><glyph glyph-name="" unicode="&#x78a7;" d="M648 528 l168 0 l0 -36 l-168 0 l0 36 l0 0 l0 0 ZM648 626 l0 36 l168 0 l0 -36 l-168 0 l0 0 l0 0 ZM190 644 l-110 0 l0 -116 l108 0 l0 -38 l-120 -6 l0 -120 l406 14 l0 120 l-142 -6 l0 36 l128 0 l0 116 l-128 0 l0 32 l140 0 l0 114 l-400 0 l0 -114 l118 0 l0 -32 l0 0 l0 0 ZM960 770 l-180 0 l12 36 l-150 0 l-16 -36 l-122 0 l0 -392 l456 0 l0 392 l0 0 l0 0 ZM64 342 l0 -120 l90 0 l-116 -192 l102 0 l0 -97 l798 0 l0 257 l-634 0 l16 32 l638 0 l0 120 l-894 0 l0 0 l0 0 ZM288 80 l502 0 l0 -40 l-502 0 l0 40 l0 0 l0 0 Z" /><glyph glyph-name="" unicode="&#x84d6;" d="M564 614 l10 32 l-146 0 l-12 -32 l-322 0 l0 -376 l840 0 l0 376 l-370 0 l0 0 l0 0 ZM224 518 l580 0 l0 -184 l-580 0 l0 184 l0 0 l0 0 ZM772 340 l0 76 l-84 14 l84 10 l0 76 l-264 -48 l-252 44 l0 -74 l70 -12 l-70 -10 l0 -72 l248 44 l268 -48 l0 0 l0 0 ZM634 672 l0 -28 l144 0 l0 28 l178 0 l0 102 l-178 0 l0 32 l-148 0 l0 -32 l-230 0 l0 32 l-144 0 l0 -32 l-184 0 l0 -102 l184 0 l0 -28 l148 0 l0 28 l230 0 l0 0 l0 0 ZM236 38 l0 44 l244 0 l0 96 l-244 0 l0 30 l-140 0 l0 -182 l-36 -2 l0 -105 l424 28 l0 107 l-248 -16 l0 0 l0 0 ZM846 38 l-182 0 l0 28 l268 40 l0 100 l-268 -40 l0 42 l-140 0 l0 -275 l424 0 l44 133 l-134 0 l-12 -28 l0 0 l0 0 Z" /><glyph glyph-name="" unicode="&#x853d;" d="M610 466 l-220 0 l0 144 l-112 0 l0 -144 l-212 0 l0 -533 l116 0 l0 155 l70 0 l30 152 l0 -307 l108 0 l0 307 l36 -152 l68 0 l0 -54 l-60 0 l0 -101 l176 0 l0 533 l0 0 l0 0 ZM494 146 l-34 144 l-70 0 l0 56 l104 0 l0 -200 l0 0 l0 0 ZM282 290 l-74 0 l-26 -132 l0 188 l100 0 l0 -56 l0 0 l0 0 ZM712 148 l-98 -215 l140 0 l38 83 l40 -83 l144 0 l-108 221 l72 188 l0 96 l28 0 l0 132 l-178 0 l8 40 l-124 0 l-56 -304 l122 0 l26 132 l42 0 l0 -78 l-38 -94 l-116 0 l58 -118 l0 0 l0 0 ZM742 670 l224 0 l0 120 l-224 0 l0 20 l-144 0 l0 -20 l-188 0 l0 20 l-144 0 l0 -20 l-208 0 l0 -120 l208 0 l0 -30 l144 0 l0 30 l188 0 l0 -30 l144 0 l0 30 l0 0 l0 0 ZM212 598 l-140 0 l48 -102 l140 0 l-48 102 l0 0 l0 0 ZM604 598 l-140 0 l-56 -102 l140 0 l56 102 l0 0 l0 0 Z" /><glyph glyph-name="" unicode="&#x6bd5;" d="M934 272 l56 204 l-144 0 l-26 -72 l-140 0 l0 158 l264 84 l0 138 l-264 -84 l0 106 l-148 0 l0 -534 l402 0 l0 0 l0 0 ZM244 804 l-148 0 l0 -424 l-36 -8 l0 -138 l424 98 l0 138 l-240 -52 l0 148 l236 0 l0 132 l-236 0 l0 106 l0 0 l0 0 ZM60 162 l0 -132 l376 0 l0 -103 l148 0 l0 103 l380 0 l0 132 l-380 0 l0 80 l-148 0 l0 -80 l-376 0 l0 0 l0 0 Z" /><glyph glyph-name="" unicode="&#x6bd9;" d="M496 14 l0 258 l-238 0 l12 32 l268 0 l0 -367 l392 0 l58 181 l-142 0 l-22 -52 l-142 0 l0 46 l254 42 l0 126 l-254 -42 l0 66 l284 0 l0 124 l-910 0 l0 -124 l66 0 l-78 -178 l154 0 l14 26 l144 0 l0 -52 l-76 -18 l-18 14 l-184 0 l46 -50 l-68 -16 l0 -117 l440 101 l0 0 l0 0 ZM676 582 l0 42 l264 54 l0 122 l-264 -54 l0 60 l-144 0 l0 -344 l398 0 l48 160 l-140 0 l-18 -40 l-144 0 l0 0 l0 0 ZM228 804 l-144 0 l0 -230 l-32 -2 l0 -122 l450 38 l0 122 l-274 -20 l0 46 l274 0 l0 120 l-274 0 l0 48 l0 0 l0 0 Z" /><glyph glyph-name="" unicode="&#x5e01;" d="M948 664 l0 134 l-876 -32 l0 -134 l368 14 l0 -100 l-356 0 l0 -565 l148 0 l0 429 l208 0 l0 -481 l148 0 l0 481 l208 0 l0 -300 l-136 0 l0 -133 l284 0 l0 569 l-356 0 l0 104 l360 14 l0 0 l0 0 Z" /><glyph glyph-name="" unicode="&#x5e87;" d="M628 -59 l306 0 l60 233 l-144 0 l-30 -100 l-44 0 l0 248 l184 62 l0 152 l-184 -66 l0 126 l-148 0 l0 -655 l0 0 l0 0 ZM438 104 l0 222 l146 0 l0 136 l-146 0 l0 132 l-148 0 l0 -522 l-42 -8 l0 -139 l342 72 l0 139 l-152 -32 l0 0 l0 0 ZM212 630 l756 0 l0 136 l-354 0 l-14 40 l-166 0 l14 -40 l-380 0 l0 -594 l-32 -239 l144 0 l32 211 l0 486 l0 0 l0 0 Z" /><glyph glyph-name="" unicode="&#x75f9;" d="M944 210 l0 416 l-612 0 l0 -416 l612 0 l0 0 l0 0 ZM48 176 l92 72 l0 -86 l-88 -229 l148 0 l80 211 l0 516 l698 0 l0 122 l-292 0 l-12 32 l-156 0 l8 -32 l-386 0 l0 -256 l-24 144 l-98 0 l36 -216 l86 0 l0 -40 l-92 -66 l0 -172 l0 0 l0 0 ZM768 -67 l144 0 l0 115 l54 0 l0 126 l-656 0 l0 -126 l56 0 l-60 -115 l154 0 l60 115 l248 0 l0 -115 l0 0 l0 0 ZM470 470 l0 42 l100 0 l0 -42 l-100 0 l0 0 l0 0 ZM806 470 l-100 0 l0 42 l100 0 l0 -42 l0 0 l0 0 ZM470 366 l100 0 l0 -42 l-100 0 l0 42 l0 0 l0 0 ZM806 324 l-100 0 l0 42 l100 0 l0 -42 l0 0 l0 0 Z" /><glyph glyph-name="" unicode="&#x95ed;" d="M396 32 l126 308 l-148 0 l-136 -308 l158 0 l0 0 l0 0 ZM758 -67 l198 0 l0 857 l-600 0 l0 -136 l452 0 l0 -588 l-50 0 l0 -133 l0 0 l0 0 ZM216 -71 l0 659 l-148 0 l0 -659 l148 0 l0 0 l0 0 ZM112 806 l88 -188 l160 0 l-92 188 l-156 0 l0 0 l0 0 ZM560 382 l0 -280 l-102 0 l0 -133 l250 0 l0 413 l70 0 l0 136 l-70 0 l0 100 l-148 0 l0 -100 l-298 0 l0 -136 l298 0 l0 0 l0 0 Z" /><glyph glyph-name="" unicode="&#x5f0a;" d="M314 136 l0 48 l-140 0 l0 -48 l-106 0 l0 -124 l78 0 l-60 -83 l150 0 l60 83 l412 0 l0 -83 l140 0 l0 83 l116 0 l0 124 l-116 0 l0 48 l-140 0 l0 -48 l-394 0 l0 0 l0 0 ZM722 646 l82 0 l0 -44 l-56 -100 l-132 0 l64 -100 l-118 -192 l154 0 l54 88 l54 -84 l152 0 l-132 192 l92 162 l0 78 l36 0 l0 124 l-226 0 l6 36 l-124 0 l-60 -274 l128 0 l26 114 l0 0 l0 0 ZM196 794 l-128 0 l42 -98 l128 0 l-42 98 l0 0 l0 0 ZM564 794 l-128 0 l-48 -98 l128 0 l48 98 l0 0 l0 0 ZM180 210 l0 144 l50 0 l26 104 l0 -240 l112 0 l0 244 l28 -104 l48 0 l0 -36 l-42 0 l0 -112 l158 0 l0 456 l-192 0 l0 140 l-112 0 l0 -140 l-192 0 l0 -456 l116 0 l0 0 l0 0 ZM444 458 l-18 64 l-58 0 l0 36 l76 0 l0 -100 l0 0 l0 0 ZM256 522 l-58 0 l-18 -68 l0 104 l76 0 l0 -36 l0 0 l0 0 Z" /><glyph glyph-name="" unicode="&#x5fc5;" d="M72 -75 l204 177 l0 -169 l500 0 l0 411 l-148 0 l0 -278 l-204 0 l0 154 l336 306 l0 192 l-336 -300 l0 324 l-148 0 l0 -446 l-204 -182 l0 -189 l0 0 l0 0 ZM842 98 l146 0 l-58 624 l-148 0 l60 -624 l0 0 l0 0 ZM96 688 l-46 -448 l144 0 l48 448 l-146 0 l0 0 l0 0 ZM440 806 l48 -184 l150 0 l-50 184 l-148 0 l0 0 l0 0 Z" /><glyph glyph-name="" unicode="&#x8f9f;" d="M498 338 l-284 0 l16 60 l268 0 l0 384 l-422 0 l0 -344 l-58 -224 l68 0 l0 -281 l412 0 l0 405 l0 0 l0 0 ZM354 534 l-134 0 l0 112 l134 0 l0 -112 l0 0 l0 0 ZM350 66 l-116 0 l0 136 l116 0 l0 -136 l0 0 l0 0 ZM682 294 l0 -132 l-138 0 l0 -136 l138 0 l0 -93 l148 0 l0 93 l138 0 l0 136 l-138 0 l0 132 l148 0 l0 136 l-54 0 l44 166 l-144 0 l-50 -166 l-246 0 l0 -136 l154 0 l0 0 l0 0 ZM658 806 l14 -44 l-134 0 l0 -136 l432 0 l0 136 l-140 0 l-16 44 l-156 0 l0 0 l0 0 ZM690 596 l-152 0 l52 -136 l148 0 l-48 136 l0 0 l0 0 Z" /><glyph glyph-name="" unicode="&#x58c1;" d="M206 504 l6 30 l296 0 l0 256 l-432 0 l0 -256 l-60 -168 l72 0 l0 -104 l420 0 l0 242 l-302 0 l0 0 l0 0 ZM84 206 l0 -114 l352 0 l0 -46 l-376 0 l0 -113 l904 0 l0 113 l-380 0 l0 46 l356 0 l0 114 l-356 0 l0 34 l-148 0 l0 -34 l-352 0 l0 0 l0 0 ZM786 570 l-50 0 l-36 58 l-142 0 l36 -58 l-56 0 l0 -112 l152 0 l0 -34 l-130 0 l0 -114 l130 0 l0 -52 l140 0 l0 52 l136 0 l0 114 l-136 0 l0 34 l152 0 l0 112 l-52 0 l40 58 l-140 0 l-44 -58 l0 0 l0 0 ZM972 658 l0 116 l-144 0 l-10 36 l-144 0 l10 -36 l-136 0 l0 -116 l424 0 l0 0 l0 0 ZM212 644 l0 34 l160 0 l0 -34 l-160 0 l0 0 l0 0 ZM372 400 l0 -34 l-148 0 l0 34 l148 0 l0 0 l0 0 Z" /><glyph glyph-name="" unicode="&#x81c2;" d="M88 356 l0 -425 l148 0 l0 115 l552 0 l0 -34 l-148 0 l0 -81 l296 0 l0 425 l-848 0 l0 0 l0 0 ZM492 386 l0 182 l-304 0 l6 32 l298 0 l0 190 l-428 0 l0 -184 l-38 -158 l58 0 l0 -62 l408 0 l0 0 l0 0 ZM786 630 l-80 0 l-20 30 l-140 0 l20 -30 l-44 0 l0 -92 l158 0 l0 -30 l-142 0 l0 -92 l142 0 l0 -30 l134 0 l0 30 l140 0 l0 92 l-140 0 l0 30 l156 0 l0 92 l-42 0 l22 34 l-136 0 l-28 -34 l0 0 l0 0 ZM664 814 l12 -32 l-148 0 l0 -94 l440 0 l0 94 l-152 0 l-12 32 l-140 0 l0 0 l0 0 ZM236 156 l552 0 l0 -34 l-552 0 l0 34 l0 0 l0 0 ZM236 266 l552 0 l0 -34 l-552 0 l0 34 l0 0 l0 0 ZM358 492 l0 -30 l-136 0 l0 30 l136 0 l0 0 l0 0 ZM198 678 l0 30 l160 0 l0 -30 l-160 0 l0 0 l0 0 Z" /><glyph glyph-name="" unicode="&#x907f;" d="M238 558 l0 158 l-184 102 l0 -158 l184 -102 l0 0 l0 0 ZM980 -67 l0 127 l-660 0 l-92 96 l0 382 l-186 0 l0 -136 l44 0 l0 -270 l-36 -38 l0 -179 l124 115 l94 -97 l712 0 l0 0 l0 0 ZM406 422 l8 36 l180 0 l0 328 l-308 0 l0 -288 l-44 -160 l56 0 l0 -236 l300 0 l0 320 l-192 0 l0 0 l0 0 ZM416 582 l0 80 l48 0 l0 -80 l-48 0 l0 0 l0 0 ZM470 298 l0 -72 l-44 0 l0 72 l44 0 l0 0 l0 0 ZM762 624 l-140 0 l38 -100 l140 0 l-38 100 l0 0 l0 0 ZM810 494 l-182 0 l0 -124 l112 0 l0 -72 l-98 0 l0 -124 l98 0 l0 -84 l136 0 l0 84 l94 0 l0 124 l-94 0 l0 72 l104 0 l0 124 l-30 0 l34 130 l-134 0 l-40 -130 l0 0 l0 0 ZM976 778 l-98 0 l-10 36 l-138 0 l8 -36 l-106 0 l0 -124 l344 0 l0 124 l0 0 l0 0 Z" /><glyph glyph-name="" unicode="&#x97ad;" d="M716 188 l-12 -50 l-108 36 l0 -126 l52 -18 l-54 -101 l146 0 l32 62 l204 -72 l0 125 l-154 54 l18 90 l128 0 l0 452 l-124 0 l0 30 l132 0 l0 120 l-384 0 l0 -120 l132 0 l0 -30 l-124 0 l0 -452 l116 0 l0 0 l0 0 ZM380 638 l36 0 l0 122 l-36 0 l0 46 l-124 0 l0 -46 l-44 0 l0 46 l-124 0 l0 -46 l-42 0 l0 -122 l42 0 l0 -144 l86 0 l0 -30 l-120 0 l0 -320 l120 0 l0 -30 l-130 0 l0 -127 l130 0 l0 -58 l120 0 l0 58 l130 0 l0 127 l-130 0 l0 30 l120 0 l0 320 l-120 0 l0 30 l86 0 l0 144 l0 0 l0 0 ZM452 494 l0 -565 l114 0 l0 607 l-40 0 l56 270 l-112 0 l-68 -312 l50 0 l0 0 l0 0 ZM256 608 l-44 0 l0 34 l44 0 l0 -34 l0 0 l0 0 ZM316 338 l0 -68 l-34 0 l0 68 l34 0 l0 0 l0 0 ZM700 306 l0 52 l36 0 l0 -52 l-36 0 l0 0 l0 0 ZM152 270 l0 68 l34 0 l0 -68 l-34 0 l0 0 l0 0 ZM700 470 l0 52 l36 0 l0 -52 l-36 0 l0 0 l0 0 ZM868 358 l0 -52 l-36 0 l0 52 l36 0 l0 0 l0 0 ZM868 522 l0 -52 l-36 0 l0 52 l36 0 l0 0 l0 0 Z" /><glyph glyph-name="" unicode="&#x8fb9;" d="M454 120 l156 334 l18 108 l170 0 l-14 -306 l-130 0 l0 -136 l274 0 l24 578 l-306 0 l10 108 l-148 0 l-10 -108 l-170 0 l0 -136 l150 0 l-16 -86 l-172 -356 l164 0 l0 0 l0 0 ZM976 -67 l0 133 l-638 0 l-102 94 l0 378 l-192 0 l0 -136 l44 0 l0 -270 l-44 -44 l0 -183 l132 123 l98 -95 l702 0 l0 0 l0 0 ZM250 558 l0 158 l-188 102 l0 -158 l188 -102 l0 0 l0 0 Z" /><glyph glyph-name="" unicode="&#x7f16;" d="M860 50 l-18 0 l0 -117 l122 0 l0 533 l-490 0 l0 -533 l102 0 l0 201 l34 0 l0 -171 l90 0 l0 171 l34 0 l0 -171 l92 0 l0 171 l34 0 l0 -84 l0 0 l0 0 ZM576 344 l34 0 l0 -88 l-34 0 l0 88 l0 0 l0 0 ZM700 344 l34 0 l0 -88 l-34 0 l0 88 l0 0 l0 0 ZM826 344 l34 0 l0 -88 l-34 0 l0 88 l0 0 l0 0 ZM324 150 l-62 -211 l126 0 l56 195 l0 360 l528 0 l0 274 l-242 0 l-16 38 l-150 0 l12 -38 l-252 0 l0 -618 l0 0 l0 0 ZM444 650 l408 0 l0 -38 l-408 0 l0 38 l0 0 l0 0 ZM210 622 l-18 -48 l-24 0 l74 232 l-114 0 l-112 -368 l122 0 l-90 -228 l244 0 l0 136 l-68 0 l98 276 l-112 0 l0 0 l0 0 ZM280 28 l0 146 l-232 -100 l0 -143 l232 97 l0 0 l0 0 Z" /><glyph glyph-name="" unicode="&#x8d2c;" d="M764 66 l-46 52 l254 352 l0 92 l-132 0 l-26 68 l-154 0 l24 -68 l-146 0 l0 -136 l228 0 l-234 -316 l0 -203 l94 99 l64 -73 l300 0 l0 133 l-226 0 l0 0 l0 0 ZM978 672 l0 132 l-444 -28 l0 -136 l444 32 l0 0 l0 0 ZM508 790 l-440 0 l0 -620 l122 0 l0 484 l196 0 l0 -484 l122 0 l0 620 l0 0 l0 0 ZM354 172 l0 418 l-132 0 l0 -420 l-160 -98 l0 -161 l228 139 l212 -135 l0 161 l-148 96 l0 0 l0 0 Z" /><glyph glyph-name="" unicode="&#x6241;" d="M760 118 l52 0 l0 -56 l-26 0 l0 -129 l166 0 l0 515 l-700 0 l0 -515 l140 0 l0 185 l52 0 l0 -161 l132 0 l0 161 l52 0 l0 -161 l132 0 l0 161 l0 0 l0 0 ZM962 486 l0 294 l-342 0 l-20 40 l-162 0 l16 -40 l-382 0 l0 -598 l-38 -239 l142 0 l38 227 l0 316 l748 0 l0 0 l0 0 ZM214 610 l0 46 l606 0 l0 -46 l-606 0 l0 0 l0 0 ZM388 324 l52 0 l0 -82 l-52 0 l0 82 l0 0 l0 0 ZM812 242 l-52 0 l0 82 l52 0 l0 -82 l0 0 l0 0 ZM628 324 l0 -82 l-52 0 l0 82 l52 0 l0 0 l0 0 Z" /><glyph glyph-name="" unicode="&#x4fbf;" d="M138 806 l-118 -416 l70 0 l0 -459 l148 0 l0 547 l-34 0 l84 328 l-150 0 l0 0 l0 0 ZM528 200 l-16 -48 l-222 44 l0 -130 l144 -28 l-84 -107 l184 0 l58 75 l380 -79 l0 129 l-316 66 l26 78 l256 0 l0 420 l-244 0 l0 46 l260 0 l0 124 l-664 0 l0 -124 l256 0 l0 -46 l-244 0 l0 -420 l226 0 l0 0 l0 0 ZM450 316 l0 38 l96 0 l0 -38 l-96 0 l0 0 l0 0 ZM450 466 l0 38 l96 0 l0 -38 l-96 0 l0 0 l0 0 ZM790 354 l0 -38 l-96 0 l0 38 l96 0 l0 0 l0 0 ZM790 504 l0 -38 l-96 0 l0 38 l96 0 l0 0 l0 0 Z" /><glyph glyph-name="" unicode="&#x53d8;" d="M956 632 l0 132 l-358 0 l-20 42 l-158 0 l16 -42 l-364 0 l0 -132 l240 0 l0 -220 l148 0 l0 220 l104 0 l0 -220 l148 0 l0 220 l244 0 l0 0 l0 0 ZM298 598 l-158 0 l-98 -176 l164 0 l92 176 l0 0 l0 0 ZM728 598 l94 -176 l160 0 l-94 176 l-160 0 l0 0 l0 0 ZM776 252 l-266 -74 l-302 62 l0 -132 l62 -8 l-198 -48 l0 -131 l428 111 l460 -105 l0 133 l-248 52 l204 60 l0 210 l-816 0 l0 -130 l676 0 l0 0 l0 0 Z" /><glyph glyph-name="" unicode="&#x8fa8;" d="M510 806 l0 -554 l-126 -321 l134 0 l112 289 l0 586 l-120 0 l0 0 l0 0 ZM372 226 l108 0 l0 426 l-108 0 l0 -426 l0 0 l0 0 ZM258 220 l0 88 l84 0 l0 130 l-32 0 l36 164 l-120 0 l-36 -164 l-154 0 l0 -130 l98 0 l0 -88 l-82 0 l0 -130 l58 0 l-72 -159 l140 0 l68 159 l84 0 l0 130 l-72 0 l0 0 l0 0 ZM112 806 l12 -44 l-82 0 l0 -130 l304 0 l0 130 l-84 0 l-12 44 l-138 0 l0 0 l0 0 ZM888 220 l0 88 l92 0 l0 130 l-38 0 l36 164 l-120 0 l-36 -164 l-162 0 l0 -130 l100 0 l0 -88 l-84 0 l0 -130 l84 0 l0 -159 l128 0 l0 159 l76 0 l0 130 l-76 0 l0 0 l0 0 ZM740 806 l12 -44 l-92 0 l0 -130 l320 0 l0 130 l-90 0 l-12 44 l-138 0 l0 0 l0 0 ZM150 602 l-114 0 l34 -134 l114 0 l-34 134 l0 0 l0 0 ZM784 602 l-116 0 l28 -134 l116 0 l-28 134 l0 0 l0 0 Z" /><glyph glyph-name="" unicode="&#x8fa9;" d="M258 220 l0 88 l84 0 l0 130 l-32 0 l36 164 l-120 0 l-36 -164 l-154 0 l0 -130 l98 0 l0 -88 l-82 0 l0 -130 l58 0 l-72 -159 l140 0 l68 159 l84 0 l0 130 l-72 0 l0 0 l0 0 ZM112 806 l12 -44 l-82 0 l0 -130 l304 0 l0 130 l-84 0 l-12 44 l-138 0 l0 0 l0 0 ZM888 220 l0 88 l92 0 l0 130 l-38 0 l36 164 l-120 0 l-36 -164 l-162 0 l0 -130 l100 0 l0 -88 l-84 0 l0 -130 l84 0 l0 -159 l128 0 l0 159 l76 0 l0 130 l-76 0 l0 0 l0 0 ZM740 806 l12 -44 l-92 0 l0 -130 l320 0 l0 130 l-88 0 l-12 44 l-140 0 l0 0 l0 0 ZM150 602 l-118 0 l34 -134 l118 0 l-34 134 l0 0 l0 0 ZM788 602 l-120 0 l28 -134 l120 0 l-28 134 l0 0 l0 0 ZM424 818 l0 -172 l176 -100 l0 168 l-176 104 l0 0 l0 0 ZM568 224 l0 326 l-192 0 l0 -132 l56 0 l0 -284 l-40 -30 l0 -173 l244 173 l0 170 l-68 -50 l0 0 l0 0 Z" /><glyph glyph-name="" unicode="&#x8fab;" d="M258 220 l0 88 l84 0 l0 130 l-32 0 l36 164 l-120 0 l-36 -164 l-154 0 l0 -130 l98 0 l0 -88 l-82 0 l0 -130 l58 0 l-72 -159 l140 0 l68 159 l84 0 l0 130 l-72 0 l0 0 l0 0 ZM112 806 l12 -44 l-82 0 l0 -130 l304 0 l0 130 l-84 0 l-12 44 l-138 0 l0 0 l0 0 ZM888 220 l0 88 l92 0 l0 130 l-38 0 l36 164 l-120 0 l-36 -164 l-162 0 l0 -130 l100 0 l0 -88 l-84 0 l0 -130 l84 0 l0 -159 l128 0 l0 159 l76 0 l0 130 l-76 0 l0 0 l0 0 ZM740 806 l12 -44 l-92 0 l0 -130 l320 0 l0 130 l-88 0 l-12 44 l-140 0 l0 0 l0 0 ZM150 602 l-118 0 l34 -134 l118 0 l-34 134 l0 0 l0 0 ZM790 602 l-118 0 l28 -134 l118 0 l-28 134 l0 0 l0 0 ZM668 606 l-124 0 l-22 -52 l-22 0 l64 252 l-120 0 l-96 -384 l108 0 l-100 -220 l278 0 l0 132 l-80 0 l114 272 l0 0 l0 0 ZM360 -55 l276 79 l0 146 l-276 -78 l0 -147 l0 0 l0 0 Z" /><glyph glyph-name="" unicode="&#x904d;" d="M982 -67 l0 127 l-662 0 l-34 34 l74 0 l30 168 l0 270 l578 0 l0 242 l-264 0 l-16 34 l-156 0 l14 -34 l-284 0 l0 -508 l-22 -120 l-14 16 l0 376 l-182 0 l0 -136 l44 0 l0 -270 l-40 -42 l0 -183 l128 125 l94 -99 l712 0 l0 0 l0 0 ZM232 574 l0 158 l-168 86 l0 -158 l168 -86 l0 0 l0 0 ZM834 672 l0 -38 l-444 0 l0 38 l444 0 l0 0 l0 0 ZM852 180 l-20 0 l0 -90 l130 0 l0 406 l-538 0 l0 -406 l110 0 l0 124 l38 0 l0 -96 l100 0 l0 96 l40 0 l0 -96 l100 0 l0 96 l40 0 l0 -34 l0 0 l0 0 ZM812 384 l40 0 l0 -60 l-40 0 l0 60 l0 0 l0 0 ZM672 384 l40 0 l0 -60 l-40 0 l0 60 l0 0 l0 0 ZM534 384 l38 0 l0 -60 l-38 0 l0 60 l0 0 l0 0 Z" /><glyph glyph-name="" unicode="&#x6807;" d="M424 710 l-96 0 l0 96 l-144 0 l0 -96 l-132 0 l0 -136 l132 0 l0 -643 l144 0 l0 301 l78 -98 l0 222 l-78 88 l0 130 l96 0 l0 136 l0 0 l0 0 ZM436 378 l204 0 l0 -314 l-54 0 l0 -133 l202 0 l0 447 l184 0 l0 136 l-536 0 l0 -136 l0 0 l0 0 ZM134 2 l36 524 l-114 0 l-32 -524 l110 0 l0 0 l0 0 ZM460 782 l0 -136 l488 0 l0 136 l-488 0 l0 0 l0 0 ZM404 -33 l136 0 l68 339 l-136 0 l-68 -339 l0 0 l0 0 ZM946 306 l-134 0 l48 -339 l134 0 l-48 339 l0 0 l0 0 Z" /><glyph glyph-name="" unicode="&#x5f6a;" d="M214 514 l320 0 l-4 -36 l148 0 l28 162 l-320 0 l0 32 l304 0 l0 106 l-304 0 l0 28 l-148 0 l0 -166 l-164 0 l0 -470 l-46 -237 l140 0 l46 235 l0 346 l0 0 l0 0 ZM344 -67 l30 93 l120 0 l0 -93 l436 0 l64 175 l-146 0 l-24 -50 l-182 0 l0 90 l-382 0 l-66 -215 l150 0 l0 0 l0 0 ZM282 316 l0 -134 l360 0 l56 142 l-140 0 l-14 -28 l-126 0 l0 36 l236 18 l0 112 l-236 -18 l0 36 l-136 0 l0 -50 l-42 -2 l0 -114 l42 2 l0 0 l0 0 ZM964 232 l0 154 l-240 -132 l0 -158 l240 136 l0 0 l0 0 ZM964 446 l0 154 l-240 -132 l0 -158 l240 136 l0 0 l0 0 ZM964 662 l0 154 l-240 -132 l0 -158 l240 136 l0 0 l0 0 Z" /><glyph glyph-name="" unicode="&#x8198;" d="M352 790 l-288 0 l0 -618 l-36 -239 l124 0 l36 231 l0 34 l40 0 l0 -132 l-38 0 l0 -133 l162 0 l0 857 l0 0 l0 0 ZM188 334 l0 96 l40 0 l0 -96 l-40 0 l0 0 l0 0 ZM188 566 l0 88 l40 0 l0 -88 l-40 0 l0 0 l0 0 ZM634 86 l0 -48 l-68 0 l0 -105 l196 0 l0 153 l212 0 l0 112 l-594 0 l0 -112 l254 0 l0 0 l0 0 ZM556 56 l-130 0 l-60 -109 l134 0 l56 109 l0 0 l0 0 ZM926 56 l-128 0 l48 -109 l132 0 l-52 109 l0 0 l0 0 ZM410 228 l540 0 l0 108 l-540 0 l0 -108 l0 0 l0 0 ZM974 674 l0 116 l-594 0 l0 -116 l142 0 l0 -40 l-134 0 l0 -268 l578 0 l0 268 l-136 0 l0 40 l144 0 l0 0 l0 0 ZM846 528 l0 -56 l-44 0 l0 56 l44 0 l0 0 l0 0 ZM506 472 l0 56 l44 0 l0 -56 l-44 0 l0 0 l0 0 ZM652 472 l0 56 l48 0 l0 -56 l-48 0 l0 0 l0 0 ZM652 634 l0 40 l48 0 l0 -40 l-48 0 l0 0 l0 0 Z" /><glyph glyph-name="" unicode="&#x8868;" d="M384 286 l590 0 l0 132 l-390 0 l0 44 l352 0 l0 130 l-352 0 l0 44 l372 0 l0 134 l-372 0 l0 36 l-148 0 l0 -36 l-368 0 l0 -134 l368 0 l0 -44 l-348 0 l0 -130 l348 0 l0 -44 l-388 0 l0 -132 l136 0 l-168 -152 l144 0 l0 -68 l-72 -8 l0 -131 l492 54 l0 135 l-272 -30 l0 108 l-30 0 l106 92 l0 0 l0 0 ZM800 -71 l200 0 l-164 159 l150 158 l-180 0 l-76 -66 l-68 68 l-192 0 l330 -319 l0 0 l0 0 Z" /><glyph glyph-name="" unicode="&#x9cd6;" d="M936 292 l-68 0 l32 96 l-616 0 l6 16 l-146 0 l-98 -196 l50 0 l0 -172 l840 0 l0 256 l0 0 l0 0 ZM378 438 l0 126 l22 -86 l60 0 l0 -52 l116 0 l0 312 l-36 0 l38 56 l-126 0 l-46 -56 l-28 0 l0 68 l-116 0 l0 -68 l-28 0 l-32 56 l-132 0 l30 -56 l-36 0 l0 -312 l116 0 l0 52 l60 0 l22 82 l0 -122 l116 0 l0 0 l0 0 ZM262 612 l-56 0 l-26 -96 l0 134 l82 0 l0 -38 l0 0 l0 0 ZM460 518 l-24 94 l-58 0 l0 38 l82 0 l0 -132 l0 0 l0 0 ZM748 486 l196 -78 l0 110 l-84 30 l78 36 l0 90 l38 0 l0 100 l-238 0 l6 32 l-122 0 l-42 -164 l126 0 l8 32 l100 0 l0 -36 l-70 -32 l-88 26 l0 -70 l-60 -30 l0 -120 l152 74 l0 0 l0 0 ZM52 -67 l920 0 l0 73 l-920 0 l0 -73 l0 0 l0 0 ZM260 322 l464 0 l-12 -30 l-464 0 l12 30 l0 0 l0 0 ZM584 226 l204 0 l0 -30 l-204 0 l0 30 l0 0 l0 0 ZM244 226 l192 0 l0 -30 l-192 0 l0 30 l0 0 l0 0 ZM788 102 l-204 0 l0 30 l204 0 l0 -30 l0 0 l0 0 ZM436 102 l-192 0 l0 30 l192 0 l0 -30 l0 0 l0 0 Z" /><glyph glyph-name="" unicode="&#x618b;" d="M374 248 l0 230 l28 -98 l64 0 l0 -30 l-44 0 l0 -112 l148 0 l0 436 l-196 0 l0 132 l-108 0 l0 -132 l-196 0 l0 -436 l108 0 l0 142 l60 0 l28 102 l0 -234 l108 0 l0 0 l0 0 ZM266 534 l-58 0 l-30 -104 l0 136 l88 0 l0 -32 l0 0 l0 0 ZM466 422 l-32 112 l-60 0 l0 32 l92 0 l0 -144 l0 0 l0 0 ZM734 642 l86 0 l0 -24 l-56 -100 l-126 0 l60 -92 l-118 -192 l138 0 l58 96 l62 -90 l144 0 l-136 188 l98 168 l0 46 l36 0 l0 124 l-220 0 l8 40 l-128 0 l-58 -260 l130 0 l22 96 l0 0 l0 0 ZM856 -59 l126 0 l-50 231 l-124 0 l48 -231 l0 0 l0 0 ZM176 -59 l64 231 l-126 0 l-66 -231 l128 0 l0 0 l0 0 ZM496 88 l136 0 l-68 120 l-132 0 l64 -120 l0 0 l0 0 ZM572 798 l-130 0 l-48 -98 l130 0 l48 98 l0 0 l0 0 ZM194 798 l-126 0 l42 -98 l134 0 l-50 98 l0 0 l0 0 ZM388 42 l0 142 l-124 0 l0 -251 l532 0 l0 239 l-120 0 l0 -130 l-288 0 l0 0 l0 0 Z" /><glyph glyph-name="" unicode="&#x522b;" d="M216 658 l192 0 l0 -104 l-192 0 l0 104 l0 0 l0 0 ZM616 752 l0 -626 l144 0 l0 626 l-144 0 l0 0 l0 0 ZM678 -67 l286 0 l0 877 l-148 0 l0 -744 l-138 0 l0 -133 l0 0 l0 0 ZM556 790 l-488 0 l0 -368 l152 0 l-6 -48 l-146 0 l0 -132 l106 0 l-140 -309 l158 0 l140 309 l76 0 l0 -180 l-110 0 l0 -129 l258 0 l0 441 l-188 0 l6 48 l182 0 l0 368 l0 0 l0 0 Z" /><glyph glyph-name="" unicode="&#x762a;" d="M950 640 l-290 0 l6 20 l-142 0 l-6 -20 l-188 0 l0 -370 l620 0 l0 370 l0 0 l0 0 ZM346 126 l0 -193 l608 0 l32 101 l-126 0 l-10 -24 l-370 0 l0 22 l440 22 l0 72 l-440 -22 l0 22 l-134 0 l0 0 l0 0 ZM654 188 l318 -62 l0 80 l-318 62 l-340 -58 l0 -80 l340 58 l0 0 l0 0 ZM816 374 l0 -30 l-352 0 l0 30 l352 0 l0 0 l0 0 ZM464 470 l352 0 l0 -30 l-352 0 l0 30 l0 0 l0 0 ZM816 566 l0 -30 l-352 0 l0 30 l352 0 l0 0 l0 0 ZM54 174 l92 78 l0 -102 l-84 -213 l144 0 l78 201 l0 548 l690 0 l0 96 l-310 0 l-18 30 l-148 0 l12 -30 l-364 0 l0 -374 l-92 -76 l0 -158 l0 0 l0 0 ZM34 662 l24 -208 l84 0 l-24 208 l-84 0 l0 0 l0 0 Z" /><glyph glyph-name="" unicode="&#x5f6c;" d="M654 -71 l0 661 l112 0 l0 132 l-112 0 l0 84 l-128 0 l0 -84 l-108 0 l0 -132 l108 0 l0 -661 l128 0 l0 0 l0 0 ZM290 -71 l0 355 l84 -80 l0 182 l-84 80 l0 124 l84 0 l0 132 l-84 0 l0 84 l-128 0 l0 -84 l-106 0 l0 -132 l106 0 l0 -661 l128 0 l0 0 l0 0 ZM478 14 l34 528 l-90 0 l-34 -528 l90 0 l0 0 l0 0 ZM118 14 l32 528 l-88 0 l-32 -528 l88 0 l0 0 l0 0 ZM760 542 l-88 0 l28 -528 l90 0 l-30 528 l0 0 l0 0 ZM810 502 l162 140 l0 168 l-162 -144 l0 -164 l0 0 l0 0 ZM972 366 l0 172 l-162 -148 l0 -168 l162 144 l0 0 l0 0 ZM972 82 l0 172 l-162 -148 l0 -167 l162 143 l0 0 l0 0 Z" /><glyph glyph-name="" unicode="&#x6fd2;" d="M570 40 l0 136 l-322 -130 l0 -135 l322 129 l0 0 l0 0 ZM698 144 l0 352 l168 0 l0 -348 l102 0 l0 464 l-150 0 l12 54 l142 0 l0 126 l-384 0 l0 -124 l118 0 l-12 -56 l-98 0 l0 -468 l102 0 l0 0 l0 0 ZM966 -79 l0 137 l-132 86 l0 302 l-104 0 l0 -306 l-128 -90 l0 -133 l188 127 l176 -123 l0 0 l0 0 ZM270 330 l-44 -200 l108 0 l40 200 l-104 0 l0 0 l0 0 ZM100 270 l-60 -331 l116 0 l62 331 l-118 0 l0 0 l0 0 ZM232 684 l-160 130 l0 -144 l160 -130 l0 144 l0 0 l0 0 ZM206 458 l-152 126 l0 -148 l152 -126 l0 148 l0 0 l0 0 ZM566 518 l-68 0 l0 76 l60 0 l0 128 l-60 0 l0 84 l-104 0 l0 -288 l-30 0 l0 216 l-100 0 l0 -216 l-24 0 l0 -128 l326 0 l0 128 l0 0 l0 0 ZM498 158 l0 202 l-104 0 l0 -202 l104 0 l0 0 l0 0 Z" /><glyph glyph-name="" unicode="&#x6ee8;" d="M352 572 l0 -320 l-48 0 l0 -132 l664 0 l0 132 l-68 0 l0 48 l48 0 l0 132 l-448 0 l0 24 l422 20 l0 120 l-570 -24 l0 0 l0 0 ZM452 646 l368 0 l0 -36 l144 0 l0 160 l-248 0 l-14 42 l-154 0 l12 -42 l-252 0 l0 -160 l144 0 l0 36 l0 0 l0 0 ZM752 252 l-252 0 l0 48 l252 0 l0 -48 l0 0 l0 0 ZM130 282 l-92 -339 l144 0 l92 339 l-144 0 l0 0 l0 0 ZM274 696 l-196 116 l0 -160 l196 -116 l0 160 l0 0 l0 0 ZM248 470 l-196 124 l0 -168 l196 -120 l0 164 l0 0 l0 0 ZM310 -81 l268 68 l0 127 l-268 -70 l0 -125 l0 0 l0 0 ZM968 -69 l0 125 l-268 58 l0 -129 l268 -54 l0 0 l0 0 Z" /><glyph glyph-name="" unicode="&#x5bbe;" d="M98 564 l0 -310 l-40 0 l0 -128 l900 0 l0 128 l-56 0 l0 48 l56 0 l0 124 l-716 0 l0 26 l682 26 l0 118 l-826 -32 l0 0 l0 0 ZM434 810 l12 -36 l-380 0 l0 -164 l148 0 l0 36 l596 0 l0 -36 l148 0 l0 164 l-348 0 l-12 36 l-164 0 l0 0 l0 0 ZM758 254 l-516 0 l0 48 l516 0 l0 -48 l0 0 l0 0 ZM66 -83 l352 76 l0 129 l-352 -78 l0 -127 l0 0 l0 0 ZM952 -79 l0 127 l-344 76 l0 -129 l344 -74 l0 0 l0 0 Z" /><glyph glyph-name="" unicode="&#x5175;" d="M974 170 l0 136 l-114 0 l0 116 l104 0 l0 136 l-694 0 l0 76 l666 20 l0 136 l-814 -20 l0 -464 l-64 0 l0 -136 l916 0 l0 0 l0 0 ZM712 306 l-442 0 l0 116 l442 0 l0 -116 l0 0 l0 0 ZM56 -83 l356 99 l0 146 l-356 -102 l0 -143 l0 0 l0 0 ZM968 -73 l0 141 l-356 94 l0 -144 l356 -91 l0 0 l0 0 Z" /><glyph glyph-name="" unicode="&#x51b0;" d="M706 530 l0 276 l-152 0 l0 -736 l-94 0 l0 -137 l246 0 l0 265 l134 -265 l156 0 l-290 597 l0 0 l0 0 ZM364 566 l-118 -633 l148 0 l116 663 l0 106 l-256 0 l0 -136 l110 0 l0 0 l0 0 ZM180 -51 l84 445 l-152 0 l-84 -445 l152 0 l0 0 l0 0 ZM974 738 l-144 0 l-54 -340 l146 0 l52 340 l0 0 l0 0 ZM188 778 l-152 0 l74 -304 l158 0 l-80 304 l0 0 l0 0 Z" /><glyph glyph-name="" unicode="&#x67c4;" d="M764 438 l64 0 l0 -372 l-60 0 l0 -133 l196 0 l0 641 l-200 0 l0 80 l196 0 l0 136 l-532 0 l0 -136 l204 0 l0 -80 l-196 0 l0 -641 l136 0 l0 505 l60 0 l0 -152 l-30 -32 l0 -192 l98 112 l98 -102 l0 190 l-34 28 l0 148 l0 0 l0 0 ZM398 714 l-60 0 l0 92 l-140 0 l0 -92 l-150 0 l0 -136 l150 0 l0 -645 l140 0 l0 305 l68 -66 l0 188 l-68 58 l0 160 l60 0 l0 136 l0 0 l0 0 ZM154 -17 l32 543 l-114 0 l-30 -543 l112 0 l0 0 l0 0 Z" /><glyph glyph-name="" unicode="&#x4e19;" d="M588 360 l0 68 l216 0 l0 -372 l-110 0 l0 -125 l258 0 l0 633 l-364 0 l0 90 l378 0 l0 136 l-904 0 l0 -136 l380 0 l0 -90 l-368 0 l0 -633 l148 0 l0 497 l218 0 l0 -68 l-188 -140 l0 -170 l266 194 l254 -176 l0 168 l-184 124 l0 0 l0 0 Z" /><glyph glyph-name="" unicode="&#x79c9;" d="M928 248 l56 0 l0 120 l-56 0 l0 136 l-350 0 l0 34 l390 0 l0 116 l-390 0 l0 38 l354 8 l0 106 l-840 -16 l0 -108 l338 6 l0 -34 l-378 0 l0 -116 l378 0 l0 -34 l-346 0 l0 -110 l346 0 l0 -36 l-382 0 l0 -100 l382 0 l0 -36 l-354 0 l0 -112 l354 0 l0 -179 l148 0 l0 179 l350 0 l0 138 l0 0 l0 0 ZM578 394 l204 0 l0 -36 l-204 0 l0 36 l0 0 l0 0 ZM578 222 l0 36 l204 0 l0 -36 l-204 0 l0 0 l0 0 ZM64 -51 l172 0 l116 131 l-168 0 l-120 -131 l0 0 l0 0 ZM782 -51 l176 0 l-124 131 l-176 0 l124 -131 l0 0 l0 0 Z" /><glyph glyph-name="" unicode="&#x997c;" d="M416 806 l56 -110 l-78 0 l0 -132 l74 0 l0 -210 l-88 0 l0 -132 l76 0 l-116 -289 l160 0 l104 289 l154 0 l0 -289 l148 0 l0 289 l74 0 l0 132 l-74 0 l0 210 l62 0 l0 132 l-64 0 l56 110 l-156 0 l-60 -110 l-108 0 l-60 110 l-160 0 l0 0 l0 0 ZM616 564 l142 0 l0 -210 l-142 0 l0 210 l0 0 l0 0 ZM242 806 l-142 0 l-82 -404 l90 0 l0 -302 l-44 -28 l0 -157 l286 163 l0 158 l-94 -56 l0 266 l-80 0 l28 140 l34 0 l-14 -100 l132 0 l32 232 l-164 0 l18 88 l0 0 l0 0 Z" /><glyph glyph-name="" unicode="&#x75c5;" d="M820 270 l0 -204 l-30 0 l0 132 l-74 56 l0 16 l104 0 l0 0 l0 0 ZM752 66 l-30 0 l0 -133 l226 0 l0 473 l-232 0 l0 56 l246 0 l0 136 l-626 0 l0 -136 l236 0 l0 -56 l-222 0 l0 -473 l118 0 l0 337 l104 0 l0 -16 l-74 -52 l0 -166 l146 106 l108 -76 l0 0 l0 0 ZM32 152 l128 80 l0 -96 l-118 -203 l156 0 l100 175 l0 524 l680 0 l0 136 l-318 0 l-22 38 l-158 0 l20 -38 l-340 0 l0 -240 l-26 130 l-116 0 l44 -228 l98 0 l0 -46 l-128 -82 l0 -150 l0 0 l0 0 Z" /><glyph glyph-name="" unicode="&#x5e76;" d="M332 578 l364 0 l0 -252 l-364 0 l0 252 l0 0 l0 0 ZM74 714 l0 -136 l110 0 l0 -252 l-124 0 l0 -136 l124 0 l0 -18 l-124 -239 l156 0 l116 231 l0 26 l364 0 l0 -257 l148 0 l0 257 l116 0 l0 136 l-116 0 l0 252 l108 0 l0 136 l-144 0 l52 92 l-164 0 l-52 -92 l-268 0 l-48 92 l-162 0 l48 -92 l-140 0 l0 0 l0 0 Z" /><glyph glyph-name="" unicode="&#x73bb;" d="M48 646 l100 0 l0 -156 l-94 0 l0 -136 l94 0 l0 -240 l-100 -36 l0 -141 l320 103 l0 148 l-82 -32 l0 198 l88 0 l0 136 l-88 0 l0 156 l100 0 l0 136 l-338 0 l0 -136 l0 0 l0 0 ZM564 362 l254 0 l0 -38 l-58 -78 l-36 60 l-152 0 l106 -166 l-156 -207 l164 0 l70 99 l68 -99 l160 0 l-140 201 l112 160 l0 204 l-176 0 l0 124 l46 0 l-6 -92 l134 0 l12 228 l-186 0 l0 48 l-148 0 l0 -48 l-206 0 l0 -606 l-98 -219 l146 0 l90 201 l0 228 l0 0 l0 0 ZM564 622 l68 0 l0 -124 l-68 0 l0 124 l0 0 l0 0 Z" /><glyph glyph-name="" unicode="&#x83e0;" d="M752 648 l212 0 l0 126 l-212 0 l0 32 l-148 0 l0 -32 l-176 0 l0 32 l-148 0 l0 -32 l-228 0 l0 -126 l228 0 l0 -26 l148 0 l0 26 l176 0 l0 -30 l148 0 l0 30 l0 0 l0 0 ZM94 470 l178 -116 l0 148 l-178 110 l0 -142 l0 0 l0 0 ZM60 292 l178 -108 l0 152 l-178 112 l0 -156 l0 0 l0 0 ZM180 -67 l104 245 l-158 0 l-102 -245 l156 0 l0 0 l0 0 ZM796 240 l0 -20 l-114 -50 l-138 54 l0 -124 l-98 -42 l0 -123 l228 97 l270 -101 l0 137 l-116 42 l116 60 l0 196 l-228 0 l0 72 l82 0 l-14 -56 l138 0 l48 182 l-254 0 l0 36 l-138 0 l0 -36 l-260 0 l0 -410 l-74 -221 l146 0 l66 209 l0 98 l340 0 l0 0 l0 0 ZM456 438 l122 0 l0 -72 l-122 0 l0 72 l0 0 l0 0 Z" /><glyph glyph-name="" unicode="&#x64ad;" d="M338 314 l0 -381 l632 0 l0 381 l-632 0 l0 0 l0 0 ZM346 456 l244 0 l0 -110 l122 0 l0 110 l248 0 l0 92 l-248 0 l0 132 l-122 0 l0 -132 l-244 0 l0 -92 l0 0 l0 0 ZM970 818 l-620 -16 l0 -102 l620 16 l0 102 l0 0 l0 0 ZM750 660 l0 -104 l220 28 l0 104 l-220 -28 l0 0 l0 0 ZM970 424 l-220 26 l0 -110 l220 -22 l0 106 l0 0 l0 0 ZM552 556 l0 106 l-212 28 l0 -108 l212 -26 l0 0 l0 0 ZM552 342 l0 108 l-212 -22 l0 -108 l212 22 l0 0 l0 0 ZM586 70 l0 -32 l-112 0 l0 32 l112 0 l0 0 l0 0 ZM586 206 l0 -32 l-112 0 l0 32 l112 0 l0 0 l0 0 ZM722 70 l112 0 l0 -32 l-112 0 l0 32 l0 0 l0 0 ZM722 206 l112 0 l0 -32 l-112 0 l0 32 l0 0 l0 0 ZM60 -67 l202 0 l0 317 l46 20 l0 138 l-46 -20 l0 150 l52 0 l0 126 l-52 0 l0 142 l-148 0 l0 -142 l-66 0 l0 -126 l66 0 l0 -196 l-62 -28 l0 -140 l62 28 l0 -146 l-54 0 l0 -123 l0 0 l0 0 Z" /><glyph glyph-name="" unicode="&#x62e8;" d="M836 334 l-120 -112 l-38 38 l-150 0 l100 -116 l-232 -211 l166 0 l150 131 l128 -131 l158 0 l-198 207 l156 150 l0 168 l-334 0 l22 52 l328 0 l0 124 l-272 0 l44 172 l-130 0 l-46 -172 l-60 0 l28 156 l-132 0 l-60 -280 l160 0 l-232 -500 l138 0 l146 324 l280 0 l0 0 l0 0 ZM782 682 l168 -30 l0 122 l-168 30 l0 -122 l0 0 l0 0 ZM262 -67 l0 315 l80 28 l0 142 l-80 -28 l0 144 l82 0 l0 128 l-82 0 l0 144 l-136 0 l0 -144 l-84 0 l0 -128 l84 0 l0 -190 l-84 -32 l0 -144 l84 32 l0 -142 l-70 0 l0 -125 l206 0 l0 0 l0 0 Z" /><glyph glyph-name="" unicode="&#x6ce2;" d="M294 690 l-196 114 l0 -158 l196 -114 l0 158 l0 0 l0 0 ZM250 490 l-202 116 l0 -158 l202 -116 l0 158 l0 0 l0 0 ZM146 298 l-120 -365 l148 0 l124 365 l-152 0 l0 0 l0 0 ZM328 182 l-90 -249 l146 0 l84 235 l0 218 l340 0 l0 -26 l-92 -114 l-54 64 l-162 0 l134 -160 l-182 -217 l166 0 l98 121 l98 -121 l166 0 l-178 215 l146 188 l0 178 l-222 0 l0 116 l90 0 l-10 -92 l136 0 l24 220 l-240 0 l0 48 l-140 0 l0 -48 l-258 0 l0 -576 l0 0 l0 0 ZM468 630 l118 0 l0 -116 l-118 0 l0 116 l0 0 l0 0 Z" /><glyph glyph-name="" unicode="&#x535a;" d="M58 398 l62 0 l0 -465 l132 0 l0 465 l66 0 l0 120 l-66 0 l0 288 l-132 0 l0 -288 l-62 0 l0 -120 l0 0 l0 0 ZM802 656 l0 112 l-82 0 l0 38 l-132 0 l0 -38 l-242 0 l0 -112 l242 0 l0 -26 l-236 0 l0 -412 l126 0 l0 40 l110 0 l0 -40 l132 0 l0 40 l110 0 l0 -36 l122 0 l0 408 l-232 0 l0 26 l82 0 l0 0 l0 0 ZM478 394 l110 0 l0 -32 l-110 0 l0 32 l0 0 l0 0 ZM478 524 l110 0 l0 -32 l-110 0 l0 32 l0 0 l0 0 ZM720 524 l110 0 l0 -32 l-110 0 l0 32 l0 0 l0 0 ZM720 394 l110 0 l0 -32 l-110 0 l0 32 l0 0 l0 0 ZM806 800 l56 -140 l120 0 l-54 140 l-122 0 l0 0 l0 0 ZM324 192 l0 -112 l446 0 l0 -38 l-154 0 l0 -109 l282 0 l0 147 l66 0 l0 112 l-66 0 l0 20 l-128 0 l0 -20 l-446 0 l0 0 l0 0 ZM420 -39 l142 0 l-56 93 l-142 0 l56 -93 l0 0 l0 0 Z" /><glyph glyph-name="" unicode="&#x52c3;" d="M204 478 l236 0 l0 -34 l144 0 l0 150 l-180 0 l0 32 l176 0 l0 116 l-176 0 l0 64 l-148 0 l0 -64 l-192 0 l0 -116 l192 0 l0 -32 l-196 0 l0 -150 l144 0 l0 34 l0 0 l0 0 ZM584 348 l0 66 l-520 0 l0 -116 l240 0 l-86 -62 l-178 -16 l0 -116 l312 32 l0 -90 l-244 0 l0 -113 l392 0 l0 219 l84 10 l0 118 l-140 -16 l140 84 l0 0 l0 0 ZM662 602 l-8 -130 l-88 -539 l140 0 l90 535 l8 134 l28 0 l-12 -556 l-50 0 l0 -113 l190 0 l10 785 l-166 0 l4 88 l-140 0 l-4 -88 l-52 0 l0 -116 l50 0 l0 0 l0 0 Z" /><glyph glyph-name="" unicode="&#x640f;" d="M802 656 l0 112 l-82 0 l0 38 l-132 0 l0 -38 l-242 0 l0 -112 l242 0 l0 -26 l-236 0 l0 -412 l126 0 l0 40 l110 0 l0 -40 l132 0 l0 40 l110 0 l0 -36 l122 0 l0 408 l-232 0 l0 26 l82 0 l0 0 l0 0 ZM720 524 l110 0 l0 -32 l-110 0 l0 32 l0 0 l0 0 ZM478 524 l110 0 l0 -32 l-110 0 l0 32 l0 0 l0 0 ZM478 394 l110 0 l0 -32 l-110 0 l0 32 l0 0 l0 0 ZM720 394 l110 0 l0 -32 l-110 0 l0 32 l0 0 l0 0 ZM806 800 l56 -140 l120 0 l-54 140 l-122 0 l0 0 l0 0 ZM324 192 l0 -112 l446 0 l0 -38 l-154 0 l0 -109 l282 0 l0 147 l66 0 l0 112 l-66 0 l0 20 l-128 0 l0 -20 l-446 0 l0 0 l0 0 ZM420 -39 l142 0 l-56 93 l-142 0 l56 -93 l0 0 l0 0 ZM54 -67 l192 0 l0 315 l68 26 l0 128 l-68 -24 l0 160 l72 0 l0 116 l-72 0 l0 152 l-128 0 l0 -152 l-76 0 l0 -116 l76 0 l0 -206 l-72 -28 l0 -130 l72 28 l0 -156 l-64 0 l0 -113 l0 0 l0 0 Z" /><glyph glyph-name="" unicode="&#x4f2f;" d="M30 390 l80 0 l0 -457 l148 0 l0 545 l-48 0 l104 328 l-154 0 l-130 -416 l0 0 l0 0 ZM562 806 l-22 -56 l-208 0 l0 -817 l624 0 l0 817 l-256 0 l20 56 l-158 0 l0 0 l0 0 ZM480 614 l328 0 l0 -196 l-328 0 l0 196 l0 0 l0 0 ZM808 66 l-328 0 l0 216 l328 0 l0 -216 l0 0 l0 0 Z" /><glyph glyph-name="" unicode="&#x8236;" d="M346 302 l0 -236 l-72 0 l0 -133 l206 0 l0 833 l-140 0 l18 40 l-146 0 l-20 -40 l-116 0 l0 -332 l-40 0 l0 -132 l40 0 l0 -142 l-40 -227 l134 0 l40 215 l0 154 l136 0 l0 0 l0 0 ZM346 634 l0 -200 l-136 0 l0 200 l136 0 l0 0 l0 0 ZM334 472 l-24 128 l-88 0 l22 -128 l90 0 l0 0 l0 0 ZM310 270 l-90 0 l24 -130 l92 0 l-26 130 l0 0 l0 0 ZM684 806 l-20 -40 l-134 0 l0 -833 l428 0 l0 833 l-144 0 l20 40 l-150 0 l0 0 l0 0 ZM668 634 l156 0 l0 -208 l-156 0 l0 208 l0 0 l0 0 ZM824 62 l-156 0 l0 232 l156 0 l0 -232 l0 0 l0 0 Z" /><glyph glyph-name="" unicode="&#x8116;" d="M400 790 l-332 0 l0 -618 l-34 -239 l134 0 l34 231 l0 42 l64 0 l0 -152 l-46 0 l0 -121 l180 0 l0 857 l0 0 l0 0 ZM202 330 l0 108 l64 0 l0 -108 l-64 0 l0 0 l0 0 ZM202 562 l0 104 l64 0 l0 -104 l-64 0 l0 0 l0 0 ZM580 486 l244 0 l0 -52 l148 0 l0 176 l-192 0 l0 32 l192 0 l0 124 l-192 0 l0 40 l-148 0 l0 -40 l-196 0 l0 -124 l196 0 l0 -32 l-196 0 l0 -176 l144 0 l0 52 l0 0 l0 0 ZM708 284 l-54 -44 l-226 0 l0 -124 l300 0 l0 -62 l-196 0 l0 -121 l344 0 l0 183 l104 0 l0 124 l-126 0 l102 76 l0 92 l-520 0 l0 -124 l272 0 l0 0 l0 0 Z" /><glyph glyph-name="" unicode="&#x818a;" d="M384 -67 l0 857 l-312 0 l0 -630 l-40 -227 l130 0 l40 219 l0 42 l52 0 l0 -136 l-42 0 l0 -125 l172 0 l0 0 l0 0 ZM254 558 l-52 0 l0 108 l52 0 l0 -108 l0 0 l0 0 ZM254 318 l-52 0 l0 116 l52 0 l0 -116 l0 0 l0 0 ZM816 658 l0 106 l-58 0 l0 42 l-130 0 l0 -42 l-218 0 l0 -106 l218 0 l0 -28 l-212 0 l0 -378 l140 0 l0 44 l72 0 l0 -44 l130 0 l0 44 l68 0 l0 -40 l130 0 l0 374 l-198 0 l0 28 l58 0 l0 0 l0 0 ZM556 540 l72 0 l0 -32 l-72 0 l0 32 l0 0 l0 0 ZM556 418 l72 0 l0 -32 l-72 0 l0 32 l0 0 l0 0 ZM758 418 l68 0 l0 -32 l-68 0 l0 32 l0 0 l0 0 ZM758 540 l68 0 l0 -32 l-68 0 l0 32 l0 0 l0 0 ZM400 192 l0 -110 l394 0 l0 -36 l-84 0 l0 -113 l214 0 l0 149 l52 0 l0 110 l-52 0 l0 34 l-130 0 l0 -34 l-394 0 l0 0 l0 0 ZM508 -53 l142 0 l-50 105 l-140 0 l48 -105 l0 0 l0 0 ZM862 660 l114 0 l-40 138 l-114 0 l40 -138 l0 0 l0 0 Z" /><glyph glyph-name="" unicode="&#x6e24;" d="M226 712 l-152 102 l0 -162 l152 -102 l0 162 l0 0 l0 0 ZM192 488 l-152 102 l0 -162 l152 -102 l0 162 l0 0 l0 0 ZM102 278 l-74 -345 l134 0 l74 345 l-134 0 l0 0 l0 0 ZM406 474 l82 0 l0 -48 l148 0 l0 172 l-116 0 l0 40 l104 0 l0 124 l-104 0 l0 44 l-148 0 l0 -44 l-100 0 l0 -124 l100 0 l0 -40 l-114 0 l0 -172 l148 0 l0 48 l0 0 l0 0 ZM412 270 l-28 -40 l-132 -12 l0 -124 l156 14 l0 -54 l-122 0 l0 -121 l270 0 l0 189 l54 4 l0 124 l-60 -6 l70 92 l0 58 l-348 0 l0 -124 l140 0 l0 0 l0 0 ZM686 622 l-56 -689 l132 0 l60 689 l10 0 l0 -568 l-28 0 l0 -121 l172 0 l0 813 l-152 0 l0 60 l-136 0 l0 -60 l-34 0 l0 -124 l32 0 l0 0 l0 0 Z" /><glyph glyph-name="" unicode="&#x6cca;" d="M276 706 l-194 116 l0 -168 l194 -116 l0 168 l0 0 l0 0 ZM242 490 l-194 110 l0 -168 l194 -110 l0 168 l0 0 l0 0 ZM132 306 l-100 -373 l154 0 l106 373 l-160 0 l0 0 l0 0 ZM318 -67 l644 0 l0 817 l-270 0 l26 56 l-166 0 l-26 -56 l-208 0 l0 -817 l0 0 l0 0 ZM466 614 l348 0 l0 -192 l-348 0 l0 192 l0 0 l0 0 ZM814 66 l-348 0 l0 220 l348 0 l0 -220 l0 0 l0 0 Z" /><glyph glyph-name="" unicode="&#x9a73;" d="M112 58 l0 -125 l338 0 l22 489 l-44 0 l44 384 l-416 0 l0 -128 l256 0 l-30 -256 l-70 0 l26 192 l-148 0 l-40 -320 l270 0 l-12 -236 l-196 0 l0 0 l0 0 ZM48 92 l232 46 l0 130 l-232 -50 l0 -126 l0 0 l0 0 ZM506 86 l0 -157 l232 139 l228 -133 l0 149 l-100 62 l100 60 l0 156 l-230 -138 l-230 138 l0 -156 l102 -60 l-102 -60 l0 0 l0 0 ZM506 530 l0 -158 l232 140 l228 -134 l0 150 l-100 62 l100 60 l0 156 l-230 -138 l-230 138 l0 -156 l102 -60 l-102 -60 l0 0 l0 0 Z" /><glyph glyph-name="" unicode="&#x6355;" d="M270 -67 l0 325 l50 28 l0 152 l-50 -30 l0 130 l50 0 l0 128 l-50 0 l0 140 l-148 0 l0 -140 l-62 0 l0 -128 l62 0 l0 -194 l-64 -36 l0 -148 l64 36 l0 -138 l-56 0 l0 -125 l204 0 l0 0 l0 0 ZM722 806 l-140 0 l0 -48 l-232 0 l0 -128 l232 0 l0 -48 l-232 0 l0 -649 l140 0 l0 169 l92 0 l0 -149 l140 0 l0 149 l92 0 l0 -44 l-46 0 l0 -125 l186 0 l0 649 l-232 0 l0 48 l74 0 l0 128 l-74 0 l0 48 l0 0 l0 0 ZM490 454 l92 0 l0 -48 l-92 0 l0 48 l0 0 l0 0 ZM722 454 l92 0 l0 -48 l-92 0 l0 48 l0 0 l0 0 ZM722 278 l92 0 l0 -48 l-92 0 l0 48 l0 0 l0 0 ZM490 278 l92 0 l0 -48 l-92 0 l0 48 l0 0 l0 0 ZM846 612 l132 0 l-26 162 l-128 0 l22 -162 l0 0 l0 0 Z" /><glyph glyph-name="" unicode="&#x535c;" d="M404 806 l0 -873 l148 0 l0 873 l-148 0 l0 0 l0 0 ZM592 436 l308 -248 l0 174 l-308 252 l0 -178 l0 0 l0 0 Z" /><glyph glyph-name="" unicode="&#x54fa;" d="M66 778 l0 -795 l296 0 l0 795 l-296 0 l0 0 l0 0 ZM196 650 l40 0 l0 -540 l-40 0 l0 540 l0 0 l0 0 ZM750 806 l-140 0 l0 -48 l-200 0 l0 -128 l200 0 l0 -48 l-204 0 l0 -649 l140 0 l0 169 l64 0 l0 -149 l140 0 l0 149 l64 0 l0 -44 l-34 0 l0 -125 l174 0 l0 649 l-204 0 l0 48 l80 0 l0 128 l-80 0 l0 48 l0 0 l0 0 ZM546 454 l64 0 l0 -48 l-64 0 l0 48 l0 0 l0 0 ZM546 278 l64 0 l0 -48 l-64 0 l0 48 l0 0 l0 0 ZM750 278 l64 0 l0 -48 l-64 0 l0 48 l0 0 l0 0 ZM750 454 l64 0 l0 -48 l-64 0 l0 48 l0 0 l0 0 ZM868 620 l112 0 l-32 154 l-112 0 l32 -154 l0 0 l0 0 Z" /><glyph glyph-name="" unicode="&#x8865;" d="M450 680 l-384 0 l0 -124 l192 0 l-222 -274 l106 0 l0 -349 l152 0 l0 281 l204 -172 l0 180 l-74 66 l134 192 l-150 0 l-80 -100 l-24 18 l146 188 l0 94 l0 0 l0 0 ZM132 806 l62 -96 l168 0 l-72 96 l-158 0 l0 0 l0 0 ZM728 -67 l0 873 l-148 0 l0 -873 l148 0 l0 0 l0 0 ZM964 200 l0 170 l-206 178 l0 -168 l206 -180 l0 0 l0 0 Z" /><glyph glyph-name="" unicode="&#x57e0;" d="M60 -63 l238 99 l0 150 l-42 -20 l0 312 l52 0 l0 136 l-52 0 l0 192 l-148 0 l0 -192 l-48 0 l0 -136 l48 0 l0 -368 l-48 -22 l0 -151 l0 0 l0 0 ZM588 142 l0 -32 l-260 0 l0 -127 l260 0 l0 -50 l148 0 l0 50 l244 0 l0 127 l-244 0 l0 32 l228 0 l0 298 l-468 0 l0 32 l464 0 l0 294 l-256 0 l20 40 l-160 0 l-20 -40 l-196 0 l0 -624 l240 0 l0 0 l0 0 ZM498 270 l0 42 l318 0 l0 -42 l-318 0 l0 0 l0 0 ZM496 600 l0 38 l316 0 l0 -38 l-316 0 l0 0 l0 0 Z" /><glyph glyph-name="" unicode="&#x4e0d;" d="M580 -67 l0 665 l56 56 l320 0 l0 136 l-888 0 l0 -136 l384 0 l-388 -388 l0 -186 l368 368 l0 -515 l148 0 l0 0 l0 0 ZM956 280 l-346 282 l0 -176 l346 -290 l0 184 l0 0 l0 0 Z" /><glyph glyph-name="" unicode="&#x5e03;" d="M410 622 l542 0 l0 136 l-464 0 l18 48 l-154 0 l-22 -48 l-260 0 l0 -136 l138 0 l-164 -126 l208 0 l158 126 l0 0 l0 0 ZM436 588 l0 -122 l-352 0 l0 -493 l148 0 l0 357 l204 0 l0 -397 l148 0 l0 397 l200 0 l0 -224 l-126 0 l0 -133 l274 0 l0 493 l-348 0 l0 122 l-148 0 l0 0 l0 0 Z" /><glyph glyph-name="" unicode="&#x6b65;" d="M964 520 l-368 0 l0 74 l340 0 l0 136 l-340 0 l0 76 l-148 0 l0 -286 l-128 0 l0 226 l-144 0 l0 -226 l-116 0 l0 -136 l904 0 l0 136 l0 0 l0 0 ZM162 340 l-90 -230 l148 0 l90 230 l-148 0 l0 0 l0 0 ZM588 354 l-148 0 l0 -204 l148 0 l0 204 l0 0 l0 0 ZM964 310 l-172 0 l-138 -176 l-574 -94 l0 -131 l652 105 l232 296 l0 0 l0 0 Z" /><glyph glyph-name="" unicode="&#x7c3f;" d="M424 698 l96 0 l0 80 l-240 0 l22 28 l-146 0 l-104 -148 l146 0 l30 40 l50 0 l32 -40 l146 0 l-32 40 l0 0 l0 0 ZM870 698 l96 0 l0 80 l-232 0 l20 28 l-142 0 l-104 -148 l146 0 l32 40 l38 0 l32 -40 l146 0 l-32 40 l0 0 l0 0 ZM44 342 l168 -94 l0 148 l-168 90 l0 -144 l0 0 l0 0 ZM80 494 l160 -84 l0 146 l-160 82 l0 -144 l0 0 l0 0 ZM180 -67 l66 293 l-132 0 l-70 -293 l136 0 l0 0 l0 0 ZM754 176 l0 -42 l-480 0 l0 -82 l480 0 l0 -30 l-150 0 l0 -89 l298 0 l0 119 l52 0 l0 82 l-52 0 l0 30 l44 0 l0 328 l-274 0 l0 30 l124 0 l0 82 l-124 0 l0 30 l-130 0 l0 -30 l-270 0 l0 -82 l270 0 l0 -30 l-270 0 l0 -316 l130 0 l0 32 l140 0 l0 -36 l130 0 l0 36 l144 0 l0 -32 l-62 0 l0 0 l0 0 ZM402 420 l140 0 l0 -32 l-140 0 l0 32 l0 0 l0 0 ZM402 314 l140 0 l0 -32 l-140 0 l0 32 l0 0 l0 0 ZM672 420 l144 0 l0 -32 l-144 0 l0 32 l0 0 l0 0 ZM672 314 l144 0 l0 -32 l-144 0 l0 32 l0 0 l0 0 ZM848 522 l122 0 l-34 100 l-122 0 l34 -100 l0 0 l0 0 ZM390 -67 l140 0 l-50 89 l-140 0 l50 -89 l0 0 l0 0 Z" /><glyph glyph-name="" unicode="&#x90e8;" d="M60 616 l456 0 l0 136 l-150 0 l-26 54 l-158 0 l26 -54 l-148 0 l0 -136 l0 0 l0 0 ZM314 456 l-42 0 l-50 126 l-158 0 l50 -126 l-76 0 l0 -126 l506 0 l0 126 l-76 0 l52 126 l-154 0 l-52 -126 l0 0 l0 0 ZM524 294 l-460 0 l0 -361 l460 0 l0 361 l0 0 l0 0 ZM212 158 l164 0 l0 -92 l-164 0 l0 92 l0 0 l0 0 ZM712 646 l88 0 l-84 -280 l100 0 l0 -276 l-62 0 l0 -133 l210 0 l0 509 l-68 0 l92 316 l-420 0 l0 -849 l144 0 l0 713 l0 0 l0 0 Z" /><glyph glyph-name="" unicode="&#x6016;" d="M152 488 l0 -555 l140 0 l0 567 l40 -40 l0 172 l-40 42 l0 132 l-140 0 l0 -176 l-84 0 l-40 -296 l100 0 l24 154 l0 0 l0 0 ZM640 622 l322 0 l0 128 l-242 0 l16 56 l-156 0 l-18 -56 l-202 0 l0 -128 l110 0 l-128 -158 l172 0 l126 158 l0 0 l0 0 ZM348 434 l0 -477 l140 0 l0 349 l98 0 l0 -373 l140 0 l0 373 l98 0 l0 -228 l-44 0 l0 -121 l184 0 l0 477 l-238 0 l0 88 l-140 0 l0 -88 l-238 0 l0 0 l0 0 Z" /><glyph glyph-name="" unicode="&#x64e6;" d="M60 50 l0 -117 l180 0 l0 311 l26 14 l0 140 l-26 -14 l0 150 l46 0 l0 120 l-46 0 l0 152 l-148 0 l0 -152 l-46 0 l0 -120 l46 0 l0 -206 l-46 -24 l0 -134 l46 24 l0 -144 l-32 0 l0 0 l0 0 ZM460 666 l380 0 l0 -34 l140 0 l0 134 l-262 0 l-24 40 l-158 0 l22 -40 l-238 0 l0 -134 l140 0 l0 34 l0 0 l0 0 ZM372 364 l32 -20 l-56 -76 l106 0 l52 72 l0 -72 l286 0 l0 80 l42 -80 l98 0 l-42 82 l88 246 l-214 0 l-8 18 l-106 0 l126 -234 l-236 0 l86 126 l0 90 l-114 0 l8 18 l-102 0 l-140 -250 l94 0 l0 0 l0 0 ZM522 514 l-28 -42 l-38 28 l8 14 l58 0 l0 0 l0 0 ZM438 396 l-34 22 l18 28 l34 -24 l-18 -26 l0 0 l0 0 ZM808 502 l44 0 l-18 -48 l-26 48 l0 0 l0 0 ZM934 126 l0 112 l-578 0 l0 -112 l222 0 l0 -76 l-50 0 l0 -117 l194 0 l0 193 l212 0 l0 0 l0 0 ZM294 -57 l140 0 l92 153 l-140 0 l-92 -153 l0 0 l0 0 ZM838 -57 l136 0 l-92 153 l-136 0 l92 -153 l0 0 l0 0 Z" /><glyph glyph-name="" unicode="&#x731c;" d="M38 142 l136 0 l22 28 l-14 -124 l-100 0 l0 -113 l230 0 l46 463 l-76 194 l100 176 l-132 0 l-26 -40 l-34 80 l-144 0 l88 -222 l-102 -158 l140 0 l18 26 l24 -64 l-176 -246 l0 0 l0 0 ZM596 552 l0 -30 l-222 0 l0 -94 l600 0 l0 94 l-230 0 l0 30 l192 0 l0 94 l-192 0 l0 30 l216 0 l0 94 l-216 0 l0 36 l-148 0 l0 -36 l-212 0 l0 -94 l212 0 l0 -30 l-188 0 l0 -94 l188 0 l0 0 l0 0 ZM796 34 l-58 0 l0 -101 l206 0 l0 463 l-556 0 l0 -463 l148 0 l0 131 l260 0 l0 -30 l0 0 l0 0 ZM536 302 l260 0 l0 -32 l-260 0 l0 32 l0 0 l0 0 ZM536 182 l260 0 l0 -32 l-260 0 l0 32 l0 0 l0 0 Z" /><glyph glyph-name="" unicode="&#x88c1;" d="M706 -67 l50 99 l110 -99 l100 0 l8 231 l-102 0 l-2 -58 l-48 46 l136 290 l-128 0 l-46 -106 l-12 146 l184 0 l0 120 l-194 0 l-14 204 l-126 0 l12 -204 l-226 0 l0 44 l192 0 l0 116 l-192 0 l0 44 l-132 0 l0 -44 l-196 0 l0 -116 l196 0 l0 -44 l-212 0 l0 -120 l580 0 l32 -348 l-102 -201 l132 0 l0 0 l0 0 ZM212 162 l88 116 l316 0 l0 120 l-196 0 l-26 54 l-152 0 l26 -54 l-204 0 l0 -120 l92 0 l-116 -148 l68 0 l0 -78 l-44 -8 l0 -115 l296 52 l0 117 l-120 -22 l0 86 l-28 0 l0 0 l0 0 ZM426 -67 l136 0 l-54 147 l78 40 l0 128 l-118 -64 l-20 56 l-134 0 l112 -307 l0 0 l0 0 ZM788 776 l40 -140 l132 0 l-42 140 l-130 0 l0 0 l0 0 Z" /><glyph glyph-name="" unicode="&#x6750;" d="M184 -21 l54 555 l-144 0 l-54 -555 l144 0 l0 0 l0 0 ZM400 722 l0 84 l-144 0 l0 -84 l-196 0 l0 -136 l196 0 l0 -653 l144 0 l0 339 l92 -102 l0 198 l-92 102 l0 116 l96 0 l0 136 l-96 0 l0 0 l0 0 ZM584 534 l-118 -555 l134 0 l132 555 l-148 0 l0 0 l0 0 ZM772 70 l-100 0 l0 -137 l244 0 l0 653 l72 0 l0 136 l-72 0 l0 84 l-144 0 l0 -84 l-238 0 l0 -136 l238 0 l0 -516 l0 0 l0 0 Z" /><glyph glyph-name="" unicode="&#x624d;" d="M690 66 l-216 0 l0 -133 l364 0 l0 609 l126 0 l0 136 l-126 0 l0 128 l-148 0 l0 -128 l-630 0 l0 -136 l630 0 l0 -476 l0 0 l0 0 ZM418 500 l-384 -521 l178 0 l380 521 l-174 0 l0 0 l0 0 Z" /><glyph glyph-name="" unicode="&#x8d22;" d="M516 796 l-448 0 l0 -628 l130 0 l0 500 l188 0 l0 -500 l130 0 l0 628 l0 0 l0 0 ZM354 158 l0 464 l-124 0 l0 -464 l-162 -82 l0 -143 l218 111 l226 -111 l0 147 l-158 78 l0 0 l0 0 ZM788 578 l0 -524 l-86 0 l0 -121 l226 0 l0 645 l44 0 l0 128 l-44 0 l0 100 l-140 0 l0 -100 l-244 0 l0 -128 l244 0 l0 0 l0 0 ZM658 -51 l106 583 l-134 0 l-104 -583 l132 0 l0 0 l0 0 Z" /><glyph glyph-name="" unicode="&#x776c;" d="M64 -39 l308 0 l0 817 l-308 0 l0 -817 l0 0 l0 0 ZM242 86 l-48 0 l0 116 l48 0 l0 -116 l0 0 l0 0 ZM194 426 l48 0 l0 -96 l-48 0 l0 96 l0 0 l0 0 ZM194 650 l48 0 l0 -96 l-48 0 l0 96 l0 0 l0 0 ZM960 804 l-552 -16 l0 -124 l552 16 l0 124 l0 0 l0 0 ZM408 638 l44 -172 l136 0 l-44 172 l-136 0 l0 0 l0 0 ZM580 638 l44 -172 l138 0 l-44 172 l-138 0 l0 0 l0 0 ZM972 646 l-136 0 l-52 -180 l138 0 l50 180 l0 0 l0 0 ZM620 394 l-208 0 l0 -128 l208 0 l0 -333 l140 0 l0 333 l204 0 l0 128 l-204 0 l0 48 l-140 0 l0 -48 l0 0 l0 0 ZM610 224 l-138 0 l-68 -291 l142 0 l64 291 l0 0 l0 0 ZM910 224 l-140 0 l62 -291 l140 0 l-62 291 l0 0 l0 0 Z" /><glyph glyph-name="" unicode="&#x8e29;" d="M432 356 l-72 0 l0 54 l86 0 l0 372 l-378 0 l0 -372 l158 0 l0 -300 l-30 -4 l0 262 l-128 0 l0 -286 l-32 -6 l0 -123 l396 65 l0 128 l-72 -12 l0 94 l72 0 l0 128 l0 0 l0 0 ZM204 538 l0 116 l106 0 l0 -116 l-106 0 l0 0 l0 0 ZM970 794 l-494 -16 l0 -124 l494 16 l0 124 l0 0 l0 0 ZM468 630 l42 -156 l124 0 l-44 156 l-122 0 l0 0 l0 0 ZM676 474 l120 0 l-44 156 l-120 0 l44 -156 l0 0 l0 0 ZM978 638 l-118 0 l-50 -164 l116 0 l52 164 l0 0 l0 0 ZM792 266 l168 0 l0 128 l-168 0 l0 48 l-136 0 l0 -48 l-178 0 l0 -128 l178 0 l0 -333 l136 0 l0 333 l0 0 l0 0 ZM586 -67 l56 291 l-136 0 l-56 -291 l136 0 l0 0 l0 0 ZM854 -67 l134 0 l-46 291 l-136 0 l48 -291 l0 0 l0 0 Z" /><glyph glyph-name="" unicode="&#x91c7;" d="M60 652 l904 20 l0 136 l-904 -20 l0 -136 l0 0 l0 0 ZM84 628 l58 -172 l164 0 l-62 172 l-160 0 l0 0 l0 0 ZM454 456 l158 0 l-58 172 l-158 0 l58 -172 l0 0 l0 0 ZM798 640 l-100 -184 l158 0 l98 184 l-156 0 l0 0 l0 0 ZM956 240 l0 136 l-364 0 l0 46 l-148 0 l0 -46 l-376 0 l0 -136 l376 0 l0 -307 l148 0 l0 307 l364 0 l0 0 l0 0 ZM56 -47 l158 0 l164 245 l-158 0 l-164 -245 l0 0 l0 0 ZM820 -47 l156 0 l-160 245 l-156 0 l160 -245 l0 0 l0 0 Z" /><glyph glyph-name="" unicode="&#x5f69;" d="M660 806 l-608 -16 l0 -124 l608 16 l0 124 l0 0 l0 0 ZM48 636 l60 -176 l144 0 l-60 176 l-144 0 l0 0 l0 0 ZM234 636 l60 -176 l146 0 l-60 176 l-146 0 l0 0 l0 0 ZM670 644 l-144 0 l-68 -184 l140 0 l72 184 l0 0 l0 0 ZM284 370 l-228 0 l0 -128 l228 0 l0 -309 l148 0 l0 309 l224 0 l0 128 l-224 0 l0 56 l-148 0 l0 -56 l0 0 l0 0 ZM270 194 l-142 0 l-66 -251 l142 0 l66 251 l0 0 l0 0 ZM588 194 l-142 0 l70 -251 l142 0 l-70 251 l0 0 l0 0 ZM964 820 l-268 -198 l0 -158 l268 198 l0 158 l0 0 l0 0 ZM964 556 l-268 -198 l0 -158 l268 198 l0 158 l0 0 l0 0 ZM964 296 l-268 -204 l0 -159 l268 201 l0 162 l0 0 l0 0 Z" /><glyph glyph-name="" unicode="&#x83dc;" d="M404 658 l196 0 l0 -30 l136 0 l0 30 l212 0 l0 120 l-212 0 l0 28 l-136 0 l0 -28 l-196 0 l0 28 l-136 0 l0 -28 l-204 0 l0 -120 l204 0 l0 -30 l136 0 l0 30 l0 0 l0 0 ZM942 504 l0 118 l-874 -30 l0 -116 l874 28 l0 0 l0 0 ZM306 404 l-208 58 l0 -136 l208 -54 l0 132 l0 0 l0 0 ZM614 300 l0 130 l-212 44 l0 -130 l212 -44 l0 0 l0 0 ZM688 280 l240 66 l0 140 l-240 -66 l0 -140 l0 0 l0 0 ZM952 262 l-376 0 l0 40 l-140 0 l0 -40 l-368 0 l0 -124 l368 0 l0 -205 l140 0 l0 205 l376 0 l0 124 l0 0 l0 0 ZM56 -57 l158 0 l126 155 l-158 0 l-126 -155 l0 0 l0 0 ZM806 -57 l162 0 l-126 155 l-162 0 l126 -155 l0 0 l0 0 Z" /><glyph glyph-name="" unicode="&#x9910;" d="M288 578 l-130 0 l36 -52 l-118 -36 l0 -80 l452 140 l0 134 l-240 0 l0 30 l240 0 l0 68 l-240 0 l0 24 l-148 0 l0 -122 l-22 0 l-46 -44 l0 -114 l98 88 l234 0 l0 -22 l-102 -30 l-14 16 l0 0 l0 0 ZM796 714 l0 -40 l-76 -30 l-120 38 l0 -84 l-42 -18 l0 -84 l154 58 l232 -80 l0 86 l-116 40 l116 48 l0 134 l-392 0 l0 -68 l244 0 l0 0 l0 0 ZM516 502 l-440 -102 l0 -76 l32 6 l0 -322 l-40 -2 l0 -87 l452 20 l0 87 l-264 -12 l0 62 l660 0 l0 262 l40 -8 l0 76 l-440 96 l0 0 l0 0 ZM516 420 l338 -70 l-246 0 l-22 42 l-162 0 l22 -42 l-270 0 l340 70 l0 0 l0 0 ZM256 280 l512 0 l0 -32 l-512 0 l0 32 l0 0 l0 0 ZM768 146 l-512 0 l0 32 l512 0 l0 -32 l0 0 l0 0 ZM948 -83 l0 76 l-58 7 l44 46 l-144 0 l-20 -22 l-212 34 l0 -77 l390 -64 l0 0 l0 0 Z" /><glyph glyph-name="" unicode="&#x53c2;" d="M374 452 l296 0 l144 -176 l168 0 l-136 176 l118 0 l0 116 l-526 0 l26 58 l496 0 l-96 156 l-158 0 l30 -40 l-420 0 l50 60 l-170 0 l-134 -176 l242 0 l-28 -58 l-216 0 l0 -116 l134 0 l-154 -176 l178 0 l156 176 l0 0 l0 0 ZM284 228 l436 44 l0 118 l-436 -42 l0 -120 l0 0 l0 0 ZM96 62 l808 74 l0 120 l-808 -74 l0 -120 l0 0 l0 0 ZM60 -91 l904 78 l0 121 l-904 -80 l0 -119 l0 0 l0 0 Z" /><glyph glyph-name="" unicode="&#x8695;" d="M774 428 l200 0 l-156 92 l138 0 l0 120 l-426 0 l14 30 l386 0 l0 120 l-832 0 l0 -120 l282 0 l-14 -30 l-298 0 l0 -120 l142 0 l-180 -92 l214 0 l172 92 l204 0 l154 -92 l0 0 l0 0 ZM590 398 l0 68 l-148 0 l0 -68 l-358 0 l0 -292 l358 0 l0 -52 l-382 0 l0 -117 l906 0 l-38 139 l-156 0 l8 -22 l-190 0 l0 52 l350 0 l0 292 l-350 0 l0 0 l0 0 ZM232 226 l0 52 l210 0 l0 -52 l-210 0 l0 0 l0 0 ZM792 278 l0 -52 l-202 0 l0 52 l202 0 l0 0 l0 0 Z" /><glyph glyph-name="" unicode="&#x6b8b;" d="M60 780 l0 -130 l80 0 l-120 -332 l98 0 l0 -108 l68 -38 l-108 -239 l150 0 l226 529 l0 108 l-194 0 l30 80 l154 0 l0 130 l-384 0 l0 0 l0 0 ZM164 326 l50 124 l92 0 l-68 -164 l-74 40 l0 0 l0 0 ZM724 286 l-6 100 l246 68 l0 136 l-260 -68 l-2 88 l86 6 l0 134 l-88 -6 l-2 62 l-148 0 l2 -70 l-78 -4 l0 -136 l82 4 l4 -108 l-92 -24 l0 -144 l100 28 l8 -160 l-164 -112 l0 -157 l228 149 l200 -139 l80 0 l68 233 l-134 0 l-18 -60 l-70 50 l166 118 l0 152 l-208 -140 l0 0 l0 0 ZM838 622 l132 0 l-40 152 l-132 0 l40 -152 l0 0 l0 0 Z" /><glyph glyph-name="" unicode="&#x60ed;" d="M132 482 l0 -549 l124 0 l0 583 l54 -50 l0 150 l-54 54 l0 136 l-124 0 l0 -180 l-62 0 l-48 -288 l86 0 l24 144 l0 0 l0 0 ZM446 308 l0 -124 l-148 -20 l0 -126 l148 20 l0 -125 l132 0 l0 143 l48 8 l0 126 l-48 -8 l0 106 l42 0 l0 124 l-42 0 l0 140 l-102 0 l0 -140 l-42 0 l46 190 l150 0 l0 122 l-122 0 l16 62 l-110 0 l-14 -62 l-82 0 l0 -122 l54 0 l-82 -314 l156 0 l0 0 l0 0 ZM756 -67 l32 219 l0 288 l30 0 l0 -507 l130 0 l0 507 l16 0 l0 126 l-176 0 l0 104 l172 12 l0 120 l-302 -16 l0 -638 l-30 -215 l128 0 l0 0 l0 0 Z" /><glyph glyph-name="" unicode="&#x60e8;" d="M136 494 l0 -561 l122 0 l0 585 l48 -36 l0 154 l-48 44 l0 126 l-122 0 l0 -176 l-76 0 l-30 -292 l90 0 l16 156 l0 0 l0 0 ZM506 618 l-10 -32 l-160 0 l0 -118 l52 0 l-108 -78 l174 0 l108 78 l202 0 l88 -86 l154 0 l-80 86 l58 0 l0 118 l-340 0 l10 32 l330 0 l-76 164 l-140 0 l24 -46 l-238 0 l40 70 l-152 0 l-106 -188 l170 0 l0 0 l0 0 ZM802 300 l0 118 l-438 -60 l0 -122 l438 64 l0 0 l0 0 ZM328 78 l612 86 l0 126 l-612 -88 l0 -124 l0 0 l0 0 ZM304 -77 l678 91 l0 124 l-678 -94 l0 -121 l0 0 l0 0 Z" /><glyph glyph-name="" unicode="&#x707f;" d="M188 710 l-134 0 l20 -400 l134 0 l-20 400 l0 0 l0 0 ZM360 806 l-138 0 l0 -498 l-192 -375 l154 0 l112 209 l130 -179 l0 229 l-66 94 l0 150 l66 76 l0 210 l-66 -76 l0 160 l0 0 l0 0 ZM456 -67 l508 0 l0 765 l-144 0 l0 -630 l-38 0 l0 738 l-144 0 l0 -738 l-38 0 l0 630 l-144 0 l0 -765 l0 0 l0 0 Z" /><glyph glyph-name="" unicode="&#x82cd;" d="M388 658 l236 0 l0 -40 l148 0 l0 40 l180 0 l0 114 l-180 0 l0 34 l-148 0 l0 -34 l-236 0 l0 34 l-148 0 l0 -34 l-180 0 l0 -114 l180 0 l0 -40 l148 0 l0 40 l0 0 l0 0 ZM508 514 l444 -98 l0 116 l-444 100 l-448 -104 l0 -116 l448 102 l0 0 l0 0 ZM940 -63 l38 159 l-138 0 l-14 -38 l-590 0 l0 230 l546 0 l-4 -38 l-334 0 l0 -124 l470 0 l20 286 l-846 0 l0 -475 l852 0 l0 0 l0 0 Z" /><glyph glyph-name="" unicode="&#x8231;" d="M526 560 l242 112 l222 -118 l0 146 l-222 112 l-242 -112 l0 -140 l0 0 l0 0 ZM864 140 l-16 -74 l-160 0 l0 356 l136 0 l-4 -100 l-78 0 l0 -128 l214 0 l8 356 l-412 0 l0 -617 l402 0 l40 207 l-130 0 l0 0 l0 0 ZM354 302 l0 -236 l-72 0 l0 -133 l214 0 l0 833 l-148 0 l18 40 l-146 0 l-20 -40 l-124 0 l0 -332 l-40 0 l0 -132 l40 0 l0 -142 l-40 -227 l142 0 l40 215 l0 154 l136 0 l0 0 l0 0 ZM354 634 l0 -200 l-136 0 l0 200 l136 0 l0 0 l0 0 ZM342 472 l-24 128 l-88 0 l22 -128 l90 0 l0 0 l0 0 ZM318 270 l-90 0 l24 -130 l92 0 l-26 130 l0 0 l0 0 Z" /><glyph glyph-name="" unicode="&#x4ed3;" d="M514 668 l444 -150 l0 142 l-444 148 l-448 -148 l0 -140 l448 148 l0 0 l0 0 ZM808 64 l-550 0 l0 330 l500 0 l-4 -98 l-308 0 l0 -132 l454 0 l10 358 l-800 0 l0 -585 l818 0 l40 197 l-144 0 l-16 -70 l0 0 l0 0 Z" /><glyph glyph-name="" unicode="&#x6ca7;" d="M288 708 l-210 102 l0 -152 l210 -104 l0 154 l0 0 l0 0 ZM258 480 l-210 102 l0 -152 l210 -102 l0 152 l0 0 l0 0 ZM166 296 l-118 -363 l148 0 l122 363 l-152 0 l0 0 l0 0 ZM660 672 l320 -122 l0 140 l-320 124 l-332 -122 l0 -138 l332 118 l0 0 l0 0 ZM840 52 l-340 0 l0 376 l312 0 l-4 -120 l-176 0 l0 -122 l320 0 l10 364 l-610 0 l0 -617 l594 0 l42 199 l-128 0 l-20 -80 l0 0 l0 0 Z" /><glyph glyph-name="" unicode="&#x85cf;" d="M762 686 l200 0 l0 92 l-200 0 l0 28 l-148 0 l0 -28 l-212 0 l0 28 l-148 0 l0 -28 l-196 0 l0 -92 l196 0 l0 -48 l148 0 l0 48 l212 0 l0 -38 l148 0 l0 38 l0 0 l0 0 ZM678 34 l-82 0 l0 52 l88 0 l0 244 l-88 0 l0 40 l80 0 l0 102 l-330 0 l0 -539 l338 0 l0 48 l78 0 l26 53 l84 -111 l58 0 l62 235 l-106 0 l-16 -50 l-20 32 l130 300 l-108 0 l-50 -118 l-14 176 l30 0 l0 106 l-32 0 l0 24 l-108 0 l0 -24 l-488 0 l0 -168 l-34 0 l0 164 l-110 0 l0 -280 l144 0 l0 -40 l-172 0 l0 -114 l30 0 l-20 -203 l102 0 l22 203 l38 0 l0 -54 l-28 -179 l108 0 l26 189 l0 376 l386 0 l28 -354 l-52 -110 l0 0 l0 0 ZM452 330 l0 40 l38 0 l0 -40 l-38 0 l0 0 l0 0 ZM452 190 l0 36 l116 0 l0 -36 l-116 0 l0 0 l0 0 ZM452 34 l0 52 l38 0 l0 -52 l-38 0 l0 0 l0 0 ZM868 492 l108 0 l-18 132 l-110 0 l20 -132 l0 0 l0 0 Z" /><glyph glyph-name="" unicode="&#x64cd;" d="M952 534 l0 256 l-612 0 l0 -256 l612 0 l0 0 l0 0 ZM812 646 l-332 0 l0 32 l332 0 l0 -32 l0 0 l0 0 ZM630 508 l-300 0 l0 -232 l300 0 l0 232 l0 0 l0 0 ZM504 376 l-48 0 l0 32 l48 0 l0 -32 l0 0 l0 0 ZM964 276 l0 232 l-304 0 l0 -232 l304 0 l0 0 l0 0 ZM834 376 l-48 0 l0 32 l48 0 l0 -32 l0 0 l0 0 ZM578 104 l0 -171 l140 0 l0 171 l258 0 l0 114 l-258 0 l0 28 l-140 0 l0 -28 l-256 0 l0 -114 l256 0 l0 0 l0 0 ZM830 -57 l148 0 l-70 131 l-146 0 l68 -131 l0 0 l0 0 ZM308 -57 l150 0 l78 131 l-146 0 l-82 -131 l0 0 l0 0 ZM66 -67 l180 0 l0 315 l54 24 l0 128 l-54 -22 l0 160 l58 0 l0 116 l-58 0 l0 152 l-128 0 l0 -152 l-56 0 l0 -116 l56 0 l0 -206 l-52 -22 l0 -130 l52 22 l0 -156 l-52 0 l0 -113 l0 0 l0 0 Z" /><glyph glyph-name="" unicode="&#x7cd9;" d="M60 556 l106 0 l-18 216 l-104 0 l16 -216 l0 0 l0 0 ZM302 412 l104 0 l0 110 l-104 0 l0 284 l-124 0 l0 -284 l-132 0 l0 -110 l132 0 l0 -479 l124 0 l0 255 l86 -86 l0 144 l-86 86 l0 80 l0 0 l0 0 ZM336 772 l-22 -216 l104 0 l18 216 l-100 0 l0 0 l0 0 ZM166 368 l-104 0 l-26 -387 l104 0 l26 387 l0 0 l0 0 ZM712 634 l44 0 l0 -100 l-134 0 l0 -110 l348 0 l0 110 l-100 0 l0 100 l90 0 l0 110 l-90 0 l0 62 l-114 0 l0 -62 l-30 0 l6 54 l-104 0 l-26 -234 l102 0 l8 70 l0 0 l0 0 ZM586 522 l-150 0 l0 -110 l26 0 l0 -276 l-112 -203 l130 0 l44 73 l56 -73 l398 0 l0 107 l-332 0 l-60 88 l0 394 l0 0 l0 0 ZM970 98 l0 284 l-344 0 l0 -284 l344 0 l0 0 l0 0 ZM750 272 l96 0 l0 -62 l-96 0 l0 62 l0 0 l0 0 ZM448 786 l38 -206 l108 0 l-38 206 l-108 0 l0 0 l0 0 Z" /><glyph glyph-name="" unicode="&#x69fd;" d="M158 -19 l28 575 l-116 0 l-28 -575 l116 0 l0 0 l0 0 ZM364 596 l0 112 l-40 0 l0 98 l-126 0 l0 -98 l-152 0 l0 -112 l152 0 l0 -663 l126 0 l0 295 l42 -54 l0 178 l-42 58 l0 186 l40 0 l0 0 l0 0 ZM562 670 l0 -32 l-166 0 l0 -342 l578 0 l0 342 l-166 0 l0 32 l170 0 l0 98 l-170 0 l0 38 l-96 0 l0 -38 l-54 0 l0 38 l-96 0 l0 -38 l-172 0 l0 -98 l172 0 l0 0 l0 0 ZM658 638 l0 32 l54 0 l0 -32 l-54 0 l0 0 l0 0 ZM508 542 l54 0 l0 -32 l-54 0 l0 32 l0 0 l0 0 ZM508 424 l54 0 l0 -34 l-54 0 l0 34 l0 0 l0 0 ZM658 542 l54 0 l0 -32 l-54 0 l0 32 l0 0 l0 0 ZM658 390 l0 34 l54 0 l0 -34 l-54 0 l0 0 l0 0 ZM862 542 l0 -32 l-54 0 l0 32 l54 0 l0 0 l0 0 ZM808 424 l54 0 l0 -34 l-54 0 l0 34 l0 0 l0 0 ZM406 -67 l556 0 l0 333 l-556 0 l0 -333 l0 0 l0 0 ZM836 144 l-304 0 l0 32 l304 0 l0 -32 l0 0 l0 0 ZM836 54 l0 -32 l-304 0 l0 32 l304 0 l0 0 l0 0 Z" /><glyph glyph-name="" unicode="&#x66f9;" d="M62 670 l262 0 l0 -32 l-246 0 l0 -336 l876 0 l0 336 l-246 0 l0 32 l258 0 l0 94 l-258 0 l0 42 l-128 0 l0 -42 l-128 0 l0 42 l-128 0 l0 -42 l-262 0 l0 -94 l0 0 l0 0 ZM580 670 l0 -32 l-128 0 l0 32 l128 0 l0 0 l0 0 ZM206 548 l118 0 l0 -32 l-118 0 l0 32 l0 0 l0 0 ZM324 426 l0 -34 l-118 0 l0 34 l118 0 l0 0 l0 0 ZM452 516 l0 32 l128 0 l0 -32 l-128 0 l0 0 l0 0 ZM580 392 l-128 0 l0 34 l128 0 l0 -34 l0 0 l0 0 ZM826 426 l0 -34 l-118 0 l0 34 l118 0 l0 0 l0 0 ZM826 516 l-118 0 l0 32 l118 0 l0 -32 l0 0 l0 0 ZM942 -63 l0 335 l-852 0 l0 -335 l852 0 l0 0 l0 0 ZM238 150 l0 32 l556 0 l0 -32 l-556 0 l0 0 l0 0 ZM238 60 l556 0 l0 -34 l-556 0 l0 34 l0 0 l0 0 Z" /><glyph glyph-name="" unicode="&#x8349;" d="M934 138 l0 452 l-844 0 l0 -452 l348 0 l0 -44 l-380 0 l0 -113 l380 0 l0 -48 l148 0 l0 48 l380 0 l0 113 l-380 0 l0 44 l348 0 l0 0 l0 0 ZM630 806 l0 -40 l-236 0 l0 40 l-148 0 l0 -40 l-186 0 l0 -106 l186 0 l0 -44 l148 0 l0 44 l236 0 l0 -44 l148 0 l0 44 l186 0 l0 106 l-186 0 l0 40 l-148 0 l0 0 l0 0 ZM238 476 l548 0 l0 -54 l-548 0 l0 54 l0 0 l0 0 ZM786 254 l-548 0 l0 52 l548 0 l0 -52 l0 0 l0 0 Z" /><glyph glyph-name="" unicode="&#x5395;" d="M976 790 l-912 0 l0 -628 l-36 -229 l138 0 l34 221 l0 504 l776 0 l0 132 l0 0 l0 0 ZM648 618 l-418 0 l0 -452 l122 0 l0 320 l174 0 l0 -320 l122 0 l0 452 l0 0 l0 0 ZM496 150 l0 306 l-114 0 l0 -306 l-160 -74 l0 -145 l214 103 l220 -103 l0 145 l-160 74 l0 0 l0 0 ZM682 592 l0 -472 l118 0 l0 472 l-118 0 l0 0 l0 0 ZM740 -67 l226 0 l0 695 l-130 0 l0 -566 l-96 0 l0 -129 l0 0 l0 0 Z" /><glyph glyph-name="" unicode="&#x7b56;" d="M436 650 l90 0 l0 116 l-232 0 l20 40 l-152 0 l-104 -226 l146 0 l36 70 l26 0 l50 -62 l166 0 l-46 62 l0 0 l0 0 ZM880 650 l86 0 l0 116 l-236 0 l16 40 l-146 0 l-90 -222 l142 0 l30 66 l32 0 l46 -62 l162 0 l-42 62 l0 0 l0 0 ZM68 -75 l364 95 l0 -87 l148 0 l0 89 l368 -97 l0 129 l-368 98 l0 98 l220 0 l0 -28 l-28 0 l0 -120 l176 0 l0 270 l-368 0 l0 30 l368 0 l0 122 l-368 0 l0 30 l-148 0 l0 -30 l-360 0 l0 -122 l360 0 l0 -30 l-360 0 l0 -252 l148 0 l0 130 l212 0 l0 -100 l-364 -98 l0 -127 l0 0 l0 0 Z" /><glyph glyph-name="" unicode="&#x4fa7;" d="M132 806 l-110 -412 l80 0 l0 -461 l132 0 l0 543 l-64 0 l88 330 l-126 0 l0 0 l0 0 ZM676 786 l-412 0 l0 -638 l112 0 l0 508 l188 0 l0 -508 l112 0 l0 638 l0 0 l0 0 ZM534 152 l0 454 l-128 0 l0 -452 l-140 -82 l0 -147 l202 115 l198 -113 l0 147 l-132 78 l0 0 l0 0 ZM706 762 l0 -646 l110 0 l0 646 l-110 0 l0 0 l0 0 ZM754 -67 l210 0 l0 873 l-118 0 l0 -746 l-92 0 l0 -127 l0 0 l0 0 Z" /><glyph glyph-name="" unicode="&#x518c;" d="M36 330 l44 0 l0 -166 l-46 -231 l146 0 l48 231 l0 166 l90 0 l0 -270 l-76 0 l0 -127 l224 0 l0 397 l76 0 l0 -166 l-44 -231 l146 0 l46 227 l0 170 l98 0 l0 -270 l-80 0 l0 -127 l228 0 l0 397 l40 0 l0 128 l-40 0 l0 336 l-394 0 l0 -336 l-76 0 l0 336 l-386 0 l0 -336 l-44 0 l0 -128 l0 0 l0 0 ZM228 658 l90 0 l0 -200 l-90 0 l0 200 l0 0 l0 0 ZM690 658 l98 0 l0 -200 l-98 0 l0 200 l0 0 l0 0 Z" /><glyph glyph-name="" unicode="&#x6d4b;" d="M222 706 l-154 108 l0 -154 l154 -110 l0 156 l0 0 l0 0 ZM198 486 l-154 108 l0 -154 l154 -110 l0 156 l0 0 l0 0 ZM108 296 l-68 -363 l124 0 l72 363 l-128 0 l0 0 l0 0 ZM664 786 l-414 0 l0 -636 l120 0 l0 514 l174 0 l0 -514 l120 0 l0 636 l0 0 l0 0 ZM514 154 l0 472 l-114 0 l0 -472 l-144 -90 l0 -141 l198 123 l202 -125 l0 145 l-142 88 l0 0 l0 0 ZM694 762 l0 -644 l120 0 l0 644 l-120 0 l0 0 l0 0 ZM750 -67 l214 0 l0 873 l-120 0 l0 -754 l-94 0 l0 -119 l0 0 l0 0 Z" /><glyph glyph-name="" unicode="&#x5c42;" d="M226 484 l714 0 l0 306 l-858 0 l0 -606 l-46 -251 l144 0 l46 251 l0 300 l0 0 l0 0 ZM226 654 l570 0 l0 -36 l-570 0 l0 36 l0 0 l0 0 ZM280 314 l640 0 l0 136 l-640 0 l0 -136 l0 0 l0 0 ZM750 66 l-292 0 l32 76 l460 0 l0 134 l-694 0 l0 -134 l82 0 l-92 -209 l706 0 l-72 179 l-150 0 l20 -46 l0 0 l0 0 Z" /><glyph glyph-name="" unicode="&#x8e6d;" d="M380 366 l-44 0 l0 48 l52 0 l0 372 l-326 0 l0 -372 l152 0 l0 -332 l-32 -4 l0 306 l-120 0 l0 -326 l-32 -4 l0 -119 l354 52 l0 125 l-48 -8 l0 144 l44 0 l0 118 l0 0 l0 0 ZM192 534 l0 134 l64 0 l0 -134 l-64 0 l0 0 l0 0 ZM466 806 l24 -44 l-72 0 l0 -406 l546 0 l0 406 l-70 0 l24 44 l-144 0 l-28 -44 l-106 0 l-24 44 l-150 0 l0 0 l0 0 ZM520 474 l0 170 l120 0 l0 -170 l-120 0 l0 0 l0 0 ZM862 644 l0 -170 l-118 0 l0 170 l118 0 l0 0 l0 0 ZM750 504 l88 0 l16 110 l-88 0 l-16 -110 l0 0 l0 0 ZM544 504 l90 0 l-18 110 l-90 0 l18 -110 l0 0 l0 0 ZM430 328 l0 -395 l524 0 l0 395 l-524 0 l0 0 l0 0 ZM570 218 l242 0 l0 -34 l-242 0 l0 34 l0 0 l0 0 ZM812 42 l-242 0 l0 34 l242 0 l0 -34 l0 0 l0 0 Z" /><glyph glyph-name="" unicode="&#x63d2;" d="M832 298 l0 -44 l-76 0 l0 -124 l76 0 l0 -78 l-106 0 l0 426 l260 0 l0 124 l-260 0 l0 72 l236 14 l0 120 l-602 -32 l0 -124 l236 12 l0 -62 l-260 0 l0 -124 l260 0 l0 -426 l-114 0 l0 78 l82 0 l0 124 l-82 0 l0 50 l82 12 l0 120 l-212 -26 l0 -477 l610 0 l0 489 l-206 0 l0 -124 l76 0 l0 0 l0 0 ZM64 -67 l190 0 l0 315 l56 24 l0 128 l-56 -22 l0 160 l52 0 l0 126 l-52 0 l0 142 l-134 0 l0 -142 l-60 0 l0 -126 l60 0 l0 -206 l-56 -22 l0 -130 l56 22 l0 -156 l-56 0 l0 -113 l0 0 l0 0 Z" /><glyph glyph-name="" unicode="&#x53c9;" d="M78 550 l322 -292 l-368 -325 l212 0 l268 233 l262 -233 l216 0 l-368 323 l314 282 l0 246 l-868 0 l0 -136 l720 0 l0 -52 l-280 -244 l-216 198 l-214 0 l0 0 l0 0 ZM442 460 l174 0 l-110 158 l-180 0 l116 -158 l0 0 l0 0 Z" /><glyph glyph-name="" unicode="&#x832c;" d="M620 806 l0 -36 l-228 0 l0 36 l-148 0 l0 -36 l-184 0 l0 -116 l184 0 l0 -36 l148 0 l0 36 l228 0 l0 -44 l148 0 l0 44 l192 0 l0 116 l-192 0 l0 36 l-148 0 l0 0 l0 0 ZM256 528 l-196 0 l0 -124 l118 0 l-156 -202 l62 0 l0 -269 l148 0 l0 317 l116 154 l608 0 l0 124 l-532 0 l40 60 l-166 0 l-42 -60 l0 0 l0 0 ZM280 282 l0 -122 l256 0 l0 -108 l-272 0 l0 -119 l688 0 l0 119 l-268 0 l0 108 l252 0 l0 122 l-252 0 l0 92 l-148 0 l0 -92 l-256 0 l0 0 l0 0 Z" /><glyph glyph-name="" unicode="&#x8336;" d="M620 806 l0 -40 l-224 0 l0 40 l-148 0 l0 -40 l-184 0 l0 -118 l184 0 l0 -54 l148 0 l0 54 l224 0 l0 -54 l148 0 l0 54 l188 0 l0 118 l-188 0 l0 40 l-148 0 l0 0 l0 0 ZM508 492 l456 -142 l0 128 l-456 144 l-448 -146 l0 -126 l448 142 l0 0 l0 0 ZM324 -67 l264 0 l0 293 l352 0 l0 128 l-352 0 l0 92 l-156 0 l0 -92 l-348 0 l0 -128 l348 0 l0 -168 l-108 0 l0 -125 l0 0 l0 0 ZM194 196 l-150 -253 l160 0 l154 253 l-164 0 l0 0 l0 0 ZM650 196 l160 -253 l166 0 l-162 253 l-164 0 l0 0 l0 0 Z" /><glyph glyph-name="" unicode="&#x67e5;" d="M770 540 l200 0 l-126 94 l106 0 l0 128 l-364 0 l0 44 l-148 0 l0 -44 l-376 0 l0 -128 l104 0 l-122 -94 l194 0 l120 94 l80 0 l0 -94 l148 0 l0 94 l60 0 l124 -94 l0 0 l0 0 ZM82 510 l0 -418 l848 0 l0 418 l-848 0 l0 0 l0 0 ZM230 210 l0 32 l552 0 l0 -32 l-552 0 l0 0 l0 0 ZM782 392 l0 -32 l-552 0 l0 32 l552 0 l0 0 l0 0 ZM60 -63 l904 0 l0 125 l-904 0 l0 -125 l0 0 l0 0 Z" /><glyph glyph-name="" unicode="&#x78b4;" d="M216 514 l52 126 l90 0 l0 124 l-306 0 l0 -124 l76 0 l-124 -320 l62 0 l0 -357 l294 0 l0 551 l-144 0 l0 0 l0 0 ZM200 390 l34 0 l0 -306 l-34 0 l0 306 l0 0 l0 0 ZM580 638 l24 0 l0 -120 l148 0 l0 120 l24 0 l72 -100 l142 0 l-72 100 l58 0 l0 122 l-224 0 l0 46 l-148 0 l0 -46 l-216 0 l0 -122 l54 0 l-72 -104 l142 0 l68 104 l0 0 l0 0 ZM554 376 l248 0 l0 -32 l-248 0 l0 32 l0 0 l0 0 ZM410 492 l0 -410 l536 0 l0 410 l-536 0 l0 0 l0 0 ZM802 200 l-248 0 l0 30 l248 0 l0 -30 l0 0 l0 0 ZM390 -67 l576 0 l0 123 l-576 0 l0 -123 l0 0 l0 0 Z" /><glyph glyph-name="" unicode="&#x5bdf;" d="M194 656 l636 0 l0 -36 l132 0 l0 148 l-368 0 l-16 38 l-156 0 l14 -38 l-370 0 l0 -148 l128 0 l0 36 l0 0 l0 0 ZM642 622 l-150 0 l356 -444 l148 0 l-158 202 l126 218 l-304 0 l-18 24 l0 0 l0 0 ZM770 274 l-486 0 l0 -118 l166 0 l0 -104 l-82 0 l0 -119 l230 0 l0 223 l172 0 l0 118 l0 0 l0 0 ZM500 528 l0 70 l-180 0 l18 24 l-136 0 l-190 -230 l62 0 l70 -82 l-118 -132 l158 0 l316 350 l0 0 l0 0 ZM648 414 l-244 0 l0 -112 l244 0 l0 112 l0 0 l0 0 ZM278 458 l-28 32 l58 0 l-30 -32 l0 0 l0 0 ZM200 370 l-34 42 l24 30 l38 -40 l-28 -32 l0 0 l0 0 ZM784 498 l-20 -32 l-26 32 l46 0 l0 0 l0 0 ZM954 54 l-242 90 l0 -136 l242 -83 l0 129 l0 0 l0 0 ZM332 140 l-260 -84 l0 -131 l260 79 l0 136 l0 0 l0 0 Z" /><glyph glyph-name="" unicode="&#x5c94;" d="M446 688 l0 126 l-386 -124 l0 -128 l386 126 l0 0 l0 0 ZM594 688 l370 -118 l0 128 l-370 114 l0 -124 l0 0 l0 0 ZM208 432 l-134 -194 l168 0 l134 194 l410 0 l-4 -64 l-144 0 l0 -128 l286 0 l14 324 l-846 0 l0 -132 l116 0 l0 0 l0 0 ZM232 208 l-144 0 l0 -271 l848 0 l0 271 l-144 0 l0 -144 l-208 0 l0 174 l-144 0 l0 -174 l-208 0 l0 144 l0 0 l0 0 Z" /><glyph glyph-name="" unicode="&#x5dee;" d="M314 308 l654 0 l0 126 l-570 0 l18 30 l536 0 l0 126 l-458 0 l20 30 l454 0 l0 126 l-158 0 l40 60 l-160 0 l-40 -60 l-270 0 l-36 60 l-160 0 l36 -60 l-164 0 l0 -126 l288 0 l-18 -30 l-234 0 l0 -126 l156 0 l-20 -30 l-172 0 l0 -126 l90 0 l-118 -174 l162 0 l124 174 l0 0 l0 0 ZM916 130 l0 128 l-630 0 l0 -128 l158 0 l0 -68 l-384 0 l0 -125 l904 0 l0 125 l-372 0 l0 68 l324 0 l0 0 l0 0 Z" /><glyph glyph-name="" unicode="&#x62c6;" d="M64 66 l0 -133 l204 0 l0 319 l76 36 l0 148 l-76 -34 l0 132 l80 0 l0 136 l-80 0 l0 136 l-144 0 l0 -136 l-74 0 l0 -136 l74 0 l0 -184 l-74 -32 l0 -150 l74 32 l0 -134 l-60 0 l0 0 l0 0 ZM458 -67 l82 221 l0 236 l176 0 l0 -80 l-120 36 l0 -142 l120 -36 l0 -235 l144 0 l0 197 l100 -32 l0 146 l-100 28 l0 118 l104 0 l0 136 l-424 0 l0 130 l402 16 l0 136 l-546 -20 l0 -628 l-90 -227 l152 0 l0 0 l0 0 Z" /><glyph glyph-name="" unicode="&#x67f4;" d="M404 806 l-138 0 l0 -302 l-36 -8 l0 250 l-134 0 l0 -274 l-36 -8 l0 -140 l442 92 l0 138 l-98 -22 l0 78 l102 0 l0 126 l-102 0 l0 70 l0 0 l0 0 ZM682 806 l-138 0 l0 -428 l390 0 l42 212 l-134 0 l-20 -82 l-140 0 l0 80 l262 60 l0 134 l-262 -54 l0 78 l0 0 l0 0 ZM956 288 l-376 0 l0 54 l-148 0 l0 -54 l-372 0 l0 -128 l372 0 l0 -227 l148 0 l0 227 l376 0 l0 128 l0 0 l0 0 ZM48 -47 l170 0 l146 177 l-170 0 l-146 -177 l0 0 l0 0 ZM800 -47 l174 0 l-148 177 l-174 0 l148 -177 l0 0 l0 0 Z" /><glyph glyph-name="" unicode="&#x8c7a;" d="M466 708 l0 108 l-406 -52 l0 -112 l406 56 l0 0 l0 0 ZM264 548 l-20 -12 l-50 80 l-144 0 l96 -152 l-86 -68 l0 -136 l250 182 l8 -26 l-258 -190 l0 -132 l292 218 l8 -30 l-300 -226 l0 -129 l288 213 l-14 -88 l-82 0 l0 -119 l200 0 l50 357 l-78 230 l46 36 l0 138 l-104 -72 l-22 36 l-148 0 l68 -110 l0 0 l0 0 ZM814 52 l-96 0 l0 -119 l228 0 l0 641 l46 0 l0 122 l-46 0 l0 110 l-132 0 l0 -110 l-310 0 l0 -122 l310 0 l0 -522 l0 0 l0 0 ZM636 -67 l118 611 l-136 0 l-120 -611 l138 0 l0 0 l0 0 Z" /><glyph glyph-name="" unicode="&#x6400;" d="M948 388 l0 234 l-52 0 l56 136 l-410 0 l24 48 l-144 0 l-110 -232 l48 0 l0 -186 l118 0 l-168 -210 l152 0 l160 210 l46 0 l0 -166 l280 0 l52 136 l-126 0 l-10 -24 l-64 0 l0 54 l148 0 l0 0 l0 0 ZM502 654 l266 0 l-14 -32 l-268 0 l16 32 l0 0 l0 0 ZM492 488 l0 32 l96 0 l0 -32 l-96 0 l0 0 l0 0 ZM816 520 l0 -32 l-96 0 l0 32 l96 0 l0 0 l0 0 ZM520 224 l0 -116 l360 -36 l0 116 l-360 36 l0 0 l0 0 ZM382 98 l0 -121 l572 -54 l0 117 l-572 58 l0 0 l0 0 ZM64 66 l0 -133 l190 0 l0 319 l70 36 l0 148 l-70 -34 l0 132 l54 0 l0 136 l-54 0 l0 136 l-134 0 l0 -136 l-60 0 l0 -136 l60 0 l0 -184 l-60 -30 l0 -150 l60 30 l0 -134 l-56 0 l0 0 l0 0 Z" /><glyph glyph-name="" unicode="&#x63ba;" d="M540 618 l-20 -30 l-172 0 l0 -122 l74 0 l-88 -78 l170 0 l88 78 l156 0 l72 -82 l162 0 l-68 82 l42 0 l0 122 l-280 0 l20 30 l268 0 l-76 164 l-142 0 l22 -42 l-202 0 l36 66 l-146 0 l-106 -188 l190 0 l0 0 l0 0 ZM782 306 l0 118 l-380 -62 l0 -122 l380 66 l0 0 l0 0 ZM374 80 l536 84 l0 126 l-536 -86 l0 -124 l0 0 l0 0 ZM332 -79 l620 89 l0 124 l-620 -98 l0 -115 l0 0 l0 0 ZM64 66 l0 -133 l190 0 l0 319 l70 36 l0 148 l-70 -34 l0 132 l60 0 l0 136 l-60 0 l0 136 l-134 0 l0 -136 l-60 0 l0 -136 l60 0 l0 -184 l-60 -30 l0 -150 l60 30 l0 -134 l-56 0 l0 0 l0 0 Z" /><glyph glyph-name="" unicode="&#x8749;" d="M302 558 l32 0 l0 -204 l-32 0 l0 204 l0 0 l0 0 ZM432 200 l-98 0 l8 -120 l-30 0 l0 156 l122 0 l0 440 l-122 0 l0 130 l-120 0 l0 -130 l-120 0 l0 -440 l120 0 l0 -156 l-132 0 l0 -115 l386 0 l-14 235 l0 0 l0 0 ZM202 354 l-30 0 l0 204 l30 0 l0 -204 l0 0 l0 0 ZM652 12 l0 -79 l136 0 l0 79 l180 0 l0 118 l-180 0 l0 68 l174 0 l0 526 l-66 0 l38 82 l-132 0 l-40 -82 l-56 0 l-36 82 l-136 0 l36 -82 l-92 0 l0 -526 l174 0 l0 -68 l-186 0 l0 -118 l186 0 l0 0 l0 0 ZM614 524 l0 82 l38 0 l0 -82 l-38 0 l0 0 l0 0 ZM614 318 l0 88 l38 0 l0 -88 l-38 0 l0 0 l0 0 ZM826 406 l0 -88 l-38 0 l0 88 l38 0 l0 0 l0 0 ZM826 606 l0 -82 l-38 0 l0 82 l38 0 l0 0 l0 0 Z" /><glyph glyph-name="" unicode="&#x998b;" d="M112 76 l-44 -28 l0 -137 l280 147 l0 146 l-114 -70 l0 306 l-78 0 l34 158 l26 0 l-28 -134 l114 0 l56 252 l-142 0 l22 90 l-128 0 l-86 -400 l88 0 l0 -330 l0 0 l0 0 ZM964 378 l0 246 l-54 0 l60 142 l-406 0 l16 40 l-134 0 l-122 -294 l48 0 l0 -134 l124 0 l-138 -204 l142 0 l138 204 l38 0 l0 -166 l282 0 l28 136 l-124 0 l-6 -28 l-48 0 l0 58 l156 0 l0 0 l0 0 ZM522 658 l270 0 l-16 -34 l-268 0 l14 34 l0 0 l0 0 ZM504 490 l0 32 l98 0 l0 -32 l-98 0 l0 0 l0 0 ZM832 522 l0 -32 l-98 0 l0 32 l98 0 l0 0 l0 0 ZM540 214 l0 -114 l386 -32 l0 114 l-386 32 l0 0 l0 0 ZM382 92 l0 -121 l592 -48 l0 119 l-592 50 l0 0 l0 0 Z" /><glyph glyph-name="" unicode="&#x7f20;" d="M196 554 l-18 0 l80 252 l-124 0 l-110 -368 l128 0 l-86 -208 l248 0 l0 116 l-72 0 l96 252 l-124 0 l-18 -44 l0 0 l0 0 ZM46 -59 l240 91 l0 138 l-240 -98 l0 -131 l0 0 l0 0 ZM400 -67 l76 203 l0 508 l496 0 l0 120 l-210 0 l-16 42 l-154 0 l16 -42 l-256 0 l0 -620 l-84 -211 l132 0 l0 0 l0 0 ZM490 -67 l482 0 l0 113 l-180 0 l0 30 l146 0 l0 116 l-146 0 l0 30 l162 0 l0 392 l-448 0 l0 -392 l162 0 l0 -30 l-146 0 l0 -116 l146 0 l0 -30 l-178 0 l0 -113 l0 0 l0 0 ZM630 472 l0 32 l38 0 l0 -32 l-38 0 l0 0 l0 0 ZM630 334 l0 32 l38 0 l0 -32 l-38 0 l0 0 l0 0 ZM830 504 l0 -32 l-38 0 l0 32 l38 0 l0 0 l0 0 ZM830 366 l0 -32 l-38 0 l0 32 l38 0 l0 0 l0 0 Z" /><glyph glyph-name="" unicode="&#x94f2;" d="M950 758 l-198 0 l-20 48 l-148 0 l20 -48 l-192 0 l0 -128 l538 0 l0 128 l0 0 l0 0 ZM488 490 l-98 0 l0 -308 l-76 -249 l146 0 l78 253 l0 176 l428 0 l0 128 l-80 0 l48 110 l-146 0 l-52 -110 l-94 0 l-54 110 l-150 0 l50 -110 l0 0 l0 0 ZM26 412 l92 0 l0 -32 l-64 0 l0 -136 l64 0 l0 -144 l-46 -26 l0 -155 l260 129 l0 158 l-66 -38 l0 76 l94 0 l0 136 l-94 0 l0 32 l74 0 l0 136 l-140 0 l10 30 l172 0 l0 136 l-142 0 l24 92 l-136 0 l-102 -394 l0 0 l0 0 Z" /><glyph glyph-name="" unicode="&#x4ea7;" d="M410 806 l24 -50 l-348 0 l0 -136 l854 0 l0 136 l-336 0 l-24 50 l-170 0 l0 0 l0 0 ZM632 494 l-238 0 l-60 96 l-174 0 l60 -96 l-138 0 l0 -332 l-56 -229 l146 0 l58 231 l0 194 l736 0 l0 136 l-164 0 l60 96 l-168 0 l-62 -96 l0 0 l0 0 Z" /><glyph glyph-name="" unicode="&#x9610;" d="M284 798 l-152 0 l68 -114 l152 0 l-68 114 l0 0 l0 0 ZM64 666 l0 -733 l128 0 l0 733 l-128 0 l0 0 l0 0 ZM386 670 l446 0 l0 -620 l-26 0 l0 -117 l154 0 l0 857 l-574 0 l0 -120 l0 0 l0 0 ZM254 578 l0 -410 l202 0 l0 -40 l-214 0 l0 -120 l214 0 l0 -45 l116 0 l0 45 l210 0 l0 120 l-210 0 l0 40 l198 0 l0 410 l-64 0 l36 52 l-136 0 l-36 -52 l-108 0 l-32 52 l-134 0 l32 -52 l-74 0 l0 0 l0 0 ZM370 428 l0 40 l86 0 l0 -40 l-86 0 l0 0 l0 0 ZM370 278 l0 40 l86 0 l0 -40 l-86 0 l0 0 l0 0 ZM654 318 l0 -40 l-82 0 l0 40 l82 0 l0 0 l0 0 ZM654 468 l0 -40 l-82 0 l0 40 l82 0 l0 0 l0 0 Z" /><glyph glyph-name="" unicode="&#x98a4;" d="M54 700 l512 0 l0 76 l-184 0 l-12 30 l-140 0 l10 -30 l-186 0 l0 -76 l0 0 l0 0 ZM56 342 l508 0 l0 328 l-508 0 l0 -328 l0 0 l0 0 ZM206 424 l212 0 l0 162 l-212 0 l0 -162 l0 0 l0 0 ZM338 530 l0 -52 l-52 0 l0 52 l52 0 l0 0 l0 0 ZM446 616 l0 -222 l-272 0 l0 222 l272 0 l0 0 l0 0 ZM560 312 l-504 0 l0 -268 l504 0 l0 268 l0 0 l0 0 ZM442 144 l0 -32 l-268 0 l0 32 l268 0 l0 0 l0 0 ZM442 244 l0 -32 l-268 0 l0 32 l268 0 l0 0 l0 0 ZM48 -85 l524 20 l0 89 l-524 -18 l0 -91 l0 0 l0 0 ZM596 664 l120 0 l-10 -50 l-106 0 l0 -500 l104 0 l0 378 l160 0 l0 -378 l104 0 l0 500 l-130 0 l10 50 l128 0 l0 122 l-380 0 l0 -122 l0 0 l0 0 ZM788 0 l180 -77 l0 131 l-134 56 l0 342 l-100 0 l0 -342 l-134 -54 l0 -135 l188 79 l0 0 l0 0 Z" /><glyph glyph-name="" unicode="&#x660c;" d="M104 388 l820 0 l0 402 l-820 0 l0 -402 l0 0 l0 0 ZM262 676 l504 0 l0 -32 l-504 0 l0 32 l0 0 l0 0 ZM766 502 l-504 0 l0 32 l504 0 l0 -32 l0 0 l0 0 ZM76 354 l0 -417 l872 0 l0 417 l-872 0 l0 0 l0 0 ZM800 236 l0 -32 l-576 0 l0 32 l576 0 l0 0 l0 0 ZM800 86 l0 -32 l-576 0 l0 32 l576 0 l0 0 l0 0 Z" /><glyph glyph-name="" unicode="&#x7316;" d="M192 404 l-160 -258 l134 0 l28 46 l-14 -132 l-112 0 l0 -127 l228 0 l38 451 l-66 212 l92 196 l-134 0 l-20 -44 l-20 58 l-136 0 l72 -204 l-98 -176 l132 0 l20 30 l16 -52 l0 0 l0 0 ZM948 390 l0 400 l-580 0 l0 -400 l580 0 l0 0 l0 0 ZM516 678 l284 0 l0 -32 l-284 0 l0 32 l0 0 l0 0 ZM516 534 l284 0 l0 -32 l-284 0 l0 32 l0 0 l0 0 ZM508 228 l300 0 l0 -30 l-300 0 l0 30 l0 0 l0 0 ZM508 80 l300 0 l0 -30 l-300 0 l0 30 l0 0 l0 0 ZM956 346 l-596 0 l0 -413 l596 0 l0 413 l0 0 l0 0 Z" /><glyph glyph-name="" unicode="&#x573a;" d="M48 92 l0 -147 l320 93 l0 144 l-96 -28 l0 288 l86 0 l0 136 l-86 0 l0 236 l-148 0 l0 -236 l-82 0 l0 -136 l82 0 l0 -326 l-76 -24 l0 0 l0 0 ZM520 406 l-124 -106 l0 -144 l294 250 l100 0 l-392 -332 l0 -155 l412 341 l-8 -194 l-148 0 l0 -133 l300 0 l20 609 l-294 0 l278 156 l0 96 l-558 0 l0 -136 l274 0 l-276 -156 l0 -96 l122 0 l0 0 l0 0 Z" /><glyph glyph-name="" unicode="&#x5c1d;" d="M110 364 l804 0 l0 132 l-804 0 l0 -132 l0 0 l0 0 ZM828 524 l148 0 l0 162 l-110 0 l70 108 l-170 0 l-74 -108 l-108 0 l0 128 l-148 0 l0 -128 l-100 0 l-68 108 l-174 0 l66 -108 l-112 0 l0 -162 l148 0 l0 32 l632 0 l0 -32 l0 0 l0 0 ZM710 140 l34 -74 l-438 0 l44 114 l626 0 l0 132 l-926 0 l0 -132 l138 0 l-108 -247 l898 0 l-108 207 l-160 0 l0 0 l0 0 Z" /><glyph glyph-name="" unicode="&#x5e38;" d="M254 400 l0 40 l512 0 l0 -40 l-512 0 l0 0 l0 0 ZM830 586 l144 0 l0 144 l-128 0 l46 68 l-162 0 l-46 -68 l-102 0 l0 82 l-148 0 l0 -82 l-100 0 l-44 68 l-166 0 l42 -68 l-120 0 l0 -144 l144 0 l0 22 l640 0 l0 -22 l0 0 l0 0 ZM914 280 l0 280 l-808 0 l0 -280 l332 0 l0 -40 l-368 0 l0 -299 l144 0 l0 173 l224 0 l0 -181 l144 0 l0 181 l224 0 l0 -40 l-90 0 l0 -133 l234 0 l0 299 l-368 0 l0 40 l332 0 l0 0 l0 0 Z" /><glyph glyph-name="" unicode="&#x957f;" d="M802 -49 l196 0 l-392 393 l364 0 l0 136 l-662 0 l0 340 l-148 0 l0 -340 l-104 0 l0 -136 l104 0 l0 -284 l-36 -10 l0 -125 l398 101 l0 132 l-214 -56 l0 242 l108 0 l386 -393 l0 0 l0 0 ZM912 810 l-548 -174 l0 -146 l548 180 l0 140 l0 0 l0 0 Z" /><glyph glyph-name="" unicode="&#x507f;" d="M710 152 l44 -86 l-236 0 l50 116 l412 0 l0 132 l-706 0 l0 -132 l140 0 l-124 -249 l700 0 l-118 219 l-162 0 l0 0 l0 0 ZM424 554 l402 0 l0 -34 l144 0 l0 158 l-66 0 l66 120 l-156 0 l-70 -120 l-36 0 l0 136 l-144 0 l0 -136 l-40 0 l-54 120 l-156 0 l52 -120 l-90 0 l0 -158 l148 0 l0 34 l0 0 l0 0 ZM158 814 l-140 -408 l84 0 l0 -473 l148 0 l0 561 l-56 0 l112 320 l-148 0 l0 0 l0 0 ZM332 490 l0 -132 l600 0 l0 132 l-600 0 l0 0 l0 0 Z" /><glyph glyph-name="" unicode="&#x80a0;" d="M404 790 l-344 0 l0 -616 l-38 -241 l150 0 l36 223 l0 38 l52 0 l0 -128 l-42 0 l0 -133 l186 0 l0 857 l0 0 l0 0 ZM208 330 l0 100 l52 0 l0 -100 l-52 0 l0 0 l0 0 ZM208 566 l0 92 l52 0 l0 -92 l-52 0 l0 0 l0 0 ZM556 406 l-112 -106 l0 -146 l274 252 l86 0 l-360 -324 l0 -147 l374 321 l-8 -190 l-154 0 l0 -133 l300 0 l20 609 l-262 0 l246 174 l0 74 l-514 0 l0 -136 l224 0 l-220 -152 l0 -96 l106 0 l0 0 l0 0 Z" /><glyph glyph-name="" unicode="&#x5382;" d="M188 -67 l60 269 l0 452 l718 0 l0 136 l-866 0 l0 -570 l-64 -287 l152 0 l0 0 l0 0 Z" /><glyph glyph-name="" unicode="&#x655e;" d="M420 592 l0 224 l-144 0 l0 -224 l-216 0 l0 -659 l132 0 l0 527 l292 0 l0 -390 l-90 0 l0 -137 l226 0 l0 659 l-200 0 l0 0 l0 0 ZM454 430 l-232 0 l0 -332 l232 0 l0 332 l0 0 l0 0 ZM498 794 l-62 -172 l144 0 l60 172 l-142 0 l0 0 l0 0 ZM50 794 l60 -172 l150 0 l-66 172 l-144 0 l0 0 l0 0 ZM322 328 l32 0 l0 -128 l-32 0 l0 128 l0 0 l0 0 ZM666 346 l50 -150 l-84 -263 l142 0 l26 99 l32 -99 l150 0 l-104 279 l90 278 l0 140 l32 0 l0 136 l-200 0 l8 50 l-124 0 l-58 -438 l122 0 l36 252 l40 0 l0 -120 l-50 -164 l-108 0 l0 0 l0 0 Z" /><glyph glyph-name="" unicode="&#x7545;" d="M488 702 l-148 0 l0 114 l-140 0 l0 -114 l-148 0 l0 -620 l148 0 l0 -149 l140 0 l0 149 l148 0 l0 620 l0 0 l0 0 ZM212 214 l-32 0 l0 120 l32 0 l0 -120 l0 0 l0 0 ZM360 334 l0 -120 l-32 0 l0 120 l32 0 l0 0 l0 0 ZM212 570 l0 -104 l-32 0 l0 104 l32 0 l0 0 l0 0 ZM360 570 l0 -104 l-32 0 l0 104 l32 0 l0 0 l0 0 ZM600 406 l-90 -88 l0 -150 l244 238 l74 0 l-318 -312 l0 -159 l304 281 l-6 -150 l-108 0 l0 -133 l254 0 l18 609 l-234 0 l220 202 l0 50 l-438 0 l0 -136 l172 0 l-172 -156 l0 -96 l80 0 l0 0 l0 0 Z" /><glyph glyph-name="" unicode="&#x5531;" d="M204 646 l32 0 l0 -532 l-32 0 l0 532 l0 0 l0 0 ZM376 -21 l0 803 l-312 0 l0 -803 l312 0 l0 0 l0 0 ZM976 360 l-568 0 l0 -427 l568 0 l0 427 l0 0 l0 0 ZM956 392 l0 404 l-532 0 l0 -404 l532 0 l0 0 l0 0 ZM556 90 l272 0 l0 -36 l-272 0 l0 36 l0 0 l0 0 ZM572 540 l236 0 l0 -32 l-236 0 l0 32 l0 0 l0 0 ZM556 238 l272 0 l0 -32 l-272 0 l0 32 l0 0 l0 0 ZM572 682 l236 0 l0 -30 l-236 0 l0 30 l0 0 l0 0 Z" /><glyph glyph-name="" unicode="&#x5021;" d="M158 816 l-130 -448 l76 0 l0 -435 l148 0 l0 523 l-44 0 l104 360 l-154 0 l0 0 l0 0 ZM956 356 l-652 0 l0 -423 l652 0 l0 423 l0 0 l0 0 ZM936 388 l0 402 l-612 0 l0 -402 l612 0 l0 0 l0 0 ZM450 88 l360 0 l0 -36 l-360 0 l0 36 l0 0 l0 0 ZM470 532 l320 0 l0 -32 l-320 0 l0 32 l0 0 l0 0 ZM450 234 l360 0 l0 -34 l-360 0 l0 34 l0 0 l0 0 ZM470 672 l320 0 l0 -30 l-320 0 l0 30 l0 0 l0 0 Z" /><glyph glyph-name="" unicode="&#x8d85;" d="M380 414 l144 0 l0 132 l-172 0 l0 68 l152 0 l0 136 l-152 0 l0 62 l-144 0 l0 -62 l-148 0 l0 -136 l148 0 l0 -68 l-164 0 l0 -132 l188 0 l0 -218 l-28 24 l0 146 l-144 0 l0 -166 l-26 -267 l138 0 l14 131 l168 -131 l622 0 l0 133 l-564 0 l-32 24 l0 108 l124 0 l0 136 l-124 0 l0 80 l0 0 l0 0 ZM540 100 l420 0 l0 322 l-420 0 l0 -322 l0 0 l0 0 ZM744 656 l70 0 l-4 -82 l-62 0 l0 -116 l208 0 l8 330 l-420 0 l0 -132 l66 0 l-68 -198 l138 0 l64 198 l0 0 l0 0 ZM812 286 l0 -60 l-134 0 l0 60 l134 0 l0 0 l0 0 Z" /><glyph glyph-name="" unicode="&#x6284;" d="M778 742 l48 -392 l146 0 l-48 392 l-146 0 l0 0 l0 0 ZM346 -79 l532 201 l98 186 l-164 0 l-36 -72 l-430 -160 l0 -155 l0 0 l0 0 ZM604 806 l0 -544 l146 0 l0 544 l-146 0 l0 0 l0 0 ZM432 742 l-64 -430 l146 0 l60 430 l-142 0 l0 0 l0 0 ZM268 -67 l0 317 l88 32 l0 150 l-88 -32 l0 134 l88 0 l0 136 l-88 0 l0 136 l-142 0 l0 -136 l-84 0 l0 -136 l84 0 l0 -184 l-84 -32 l0 -150 l84 32 l0 -134 l-70 0 l0 -133 l212 0 l0 0 l0 0 Z" /><glyph glyph-name="" unicode="&#x949e;" d="M388 -101 l500 247 l106 188 l-164 0 l-52 -92 l-390 -200 l0 -143 l0 0 l0 0 ZM622 806 l0 -520 l148 0 l0 520 l-148 0 l0 0 l0 0 ZM466 742 l-60 -400 l146 0 l54 400 l-140 0 l0 0 l0 0 ZM788 742 l54 -362 l142 0 l-56 362 l-140 0 l0 0 l0 0 ZM106 806 l-82 -384 l90 0 l0 -56 l-74 0 l0 -136 l74 0 l0 -134 l-34 -18 l0 -151 l314 135 l0 148 l-132 -56 l0 76 l132 0 l0 136 l-132 0 l0 56 l118 0 l0 132 l-180 0 l8 38 l194 0 l0 132 l-164 0 l18 82 l-150 0 l0 0 l0 0 Z" /><glyph glyph-name="" unicode="&#x671d;" d="M666 -67 l30 201 l0 48 l124 0 l0 -116 l-70 0 l0 -133 l214 0 l0 849 l-412 0 l0 -640 l-30 -209 l144 0 l0 0 l0 0 ZM508 168 l0 450 l-152 0 l0 30 l162 0 l0 122 l-162 0 l0 46 l-144 0 l0 -46 l-158 0 l0 -122 l158 0 l0 -30 l-144 0 l0 -450 l148 0 l0 -36 l-168 0 l0 -128 l168 0 l0 -71 l144 0 l0 71 l162 0 l0 128 l-162 0 l0 36 l148 0 l0 0 l0 0 ZM696 422 l124 0 l0 -104 l-124 0 l0 104 l0 0 l0 0 ZM696 646 l124 0 l0 -88 l-124 0 l0 88 l0 0 l0 0 ZM212 298 l0 36 l152 0 l0 -36 l-152 0 l0 0 l0 0 ZM212 460 l0 36 l152 0 l0 -36 l-152 0 l0 0 l0 0 Z" /><glyph glyph-name="" unicode="&#x5632;" d="M786 -67 l26 221 l0 36 l26 0 l0 -124 l-22 0 l0 -133 l144 0 l0 853 l-274 0 l0 -622 l-28 -231 l128 0 l0 0 l0 0 ZM648 166 l0 430 l-84 0 l0 32 l90 0 l0 126 l-90 0 l0 64 l-140 0 l0 -64 l-84 0 l0 -126 l84 0 l0 -32 l-76 0 l0 -430 l80 0 l0 -36 l-96 0 l0 -131 l96 0 l0 -66 l140 0 l0 66 l90 0 l0 131 l-90 0 l0 36 l80 0 l0 0 l0 0 ZM60 760 l0 -775 l254 0 l0 775 l-254 0 l0 0 l0 0 ZM174 628 l32 0 l0 -512 l-32 0 l0 512 l0 0 l0 0 ZM804 422 l32 0 l0 -100 l-32 0 l0 100 l0 0 l0 0 ZM804 650 l32 0 l0 -92 l-32 0 l0 92 l0 0 l0 0 ZM478 288 l0 32 l40 0 l0 -32 l-40 0 l0 0 l0 0 ZM478 446 l0 32 l40 0 l0 -32 l-40 0 l0 0 l0 0 Z" /><glyph glyph-name="" unicode="&#x6f6e;" d="M762 -67 l26 207 l0 46 l36 0 l0 -120 l-26 0 l0 -133 l162 0 l0 861 l-304 0 l0 -630 l-28 -231 l134 0 l0 0 l0 0 ZM792 426 l32 0 l0 -108 l-32 0 l0 108 l0 0 l0 0 ZM792 658 l32 0 l0 -96 l-32 0 l0 96 l0 0 l0 0 ZM614 168 l0 440 l-100 0 l0 32 l106 0 l0 126 l-110 0 l0 50 l-144 0 l0 -50 l-110 0 l0 -126 l110 0 l0 -32 l-96 0 l0 -440 l96 0 l0 -38 l-120 0 l0 -131 l120 0 l0 -66 l144 0 l0 66 l114 0 l0 131 l-114 0 l0 38 l104 0 l0 0 l0 0 ZM408 296 l0 32 l68 0 l0 -32 l-68 0 l0 0 l0 0 ZM408 448 l0 32 l68 0 l0 -32 l-68 0 l0 0 l0 0 ZM116 266 l-70 -333 l132 0 l74 333 l-136 0 l0 0 l0 0 ZM216 712 l-152 104 l0 -170 l152 -106 l0 172 l0 0 l0 0 ZM216 476 l-170 120 l0 -170 l170 -114 l0 164 l0 0 l0 0 Z" /><glyph glyph-name="" unicode="&#x5de2;" d="M968 188 l-388 0 l0 32 l364 0 l0 366 l-864 0 l0 -366 l356 0 l0 -32 l-378 0 l0 -118 l378 0 l0 -137 l144 0 l0 137 l388 0 l0 118 l0 0 l0 0 ZM562 712 l88 96 l-178 0 l-90 -94 l80 -98 l176 0 l-76 96 l0 0 l0 0 ZM874 712 l74 96 l-170 0 l-76 -94 l82 -98 l168 0 l-78 96 l0 0 l0 0 ZM314 616 l-78 96 l88 96 l-182 0 l-86 -94 l72 -98 l186 0 l0 0 l0 0 ZM796 324 l-216 0 l0 34 l216 0 l0 -34 l0 0 l0 0 ZM580 482 l216 0 l0 -30 l-216 0 l0 30 l0 0 l0 0 ZM436 324 l-212 0 l0 34 l212 0 l0 -34 l0 0 l0 0 ZM224 482 l212 0 l0 -30 l-212 0 l0 30 l0 0 l0 0 ZM64 -57 l186 0 l114 97 l-188 0 l-112 -97 l0 0 l0 0 ZM780 -57 l186 0 l-102 97 l-188 0 l104 -97 l0 0 l0 0 Z" /><glyph glyph-name="" unicode="&#x5435;" d="M452 -91 l456 227 l88 182 l-152 0 l-50 -88 l-342 -172 l0 -149 l0 0 l0 0 ZM62 762 l0 -783 l352 0 l0 783 l-352 0 l0 0 l0 0 ZM206 626 l64 0 l0 -512 l-64 0 l0 512 l0 0 l0 0 ZM638 806 l0 -530 l148 0 l0 530 l-148 0 l0 0 l0 0 ZM484 742 l-56 -440 l140 0 l54 440 l-138 0 l0 0 l0 0 ZM802 742 l54 -382 l136 0 l-56 382 l-134 0 l0 0 l0 0 Z" /><glyph glyph-name="" unicode="&#x7092;" d="M490 -79 l414 219 l92 194 l-150 0 l-48 -98 l-308 -164 l0 -151 l0 0 l0 0 ZM644 806 l0 -530 l148 0 l0 530 l-148 0 l0 0 l0 0 ZM502 742 l-66 -440 l140 0 l58 440 l-132 0 l0 0 l0 0 ZM806 742 l56 -368 l130 0 l-58 368 l-128 0 l0 0 l0 0 ZM348 806 l-144 0 l0 -498 l-182 -375 l158 0 l114 231 l154 -175 l0 217 l-100 112 l0 122 l100 94 l0 194 l-100 -88 l0 166 l0 0 l0 0 ZM166 710 l-118 0 l18 -400 l120 0 l-20 400 l0 0 l0 0 Z" /><glyph glyph-name="" unicode="&#x8f66;" d="M438 568 l0 -126 l-150 0 l86 188 l552 0 l0 132 l-502 0 l20 38 l-156 0 l-16 -38 l-176 0 l0 -132 l118 0 l-152 -320 l376 0 l0 -116 l-358 0 l0 -136 l358 0 l0 -125 l148 0 l0 125 l354 0 l0 136 l-354 0 l0 116 l320 0 l0 132 l-320 0 l0 126 l-148 0 l0 0 l0 0 Z" /><glyph glyph-name="" unicode="&#x626f;" d="M576 66 l0 616 l-148 0 l0 -616 l-94 0 l0 -133 l652 0 l0 133 l-182 0 l0 368 l162 0 l0 136 l-162 0 l0 236 l-148 0 l0 -740 l-80 0 l0 0 l0 0 ZM272 -67 l0 317 l100 36 l0 148 l-100 -36 l0 136 l98 0 l0 136 l-98 0 l0 136 l-144 0 l0 -136 l-88 0 l0 -136 l88 0 l0 -182 l-88 -30 l0 -154 l88 32 l0 -134 l-82 0 l0 -133 l226 0 l0 0 l0 0 Z" /><glyph glyph-name="" unicode="&#x64a4;" d="M234 260 l42 20 l0 154 l-42 -20 l0 120 l46 0 l0 136 l-46 0 l0 136 l-144 0 l0 -136 l-48 0 l0 -136 l48 0 l0 -176 l-48 -22 l0 -152 l48 24 l0 -142 l-34 0 l0 -133 l178 0 l0 327 l0 0 l0 0 ZM498 622 l6 -32 l-46 0 l18 62 l176 0 l0 108 l-106 0 l-16 44 l-140 0 l14 -44 l-104 0 l0 -108 l52 0 l-56 -164 l352 0 l-32 134 l-118 0 l0 0 l0 0 ZM636 458 l-336 0 l0 -525 l132 0 l0 137 l72 0 l0 -32 l-28 0 l0 -105 l160 0 l0 525 l0 0 l0 0 ZM432 350 l72 0 l0 -30 l-72 0 l0 30 l0 0 l0 0 ZM432 212 l72 0 l0 -34 l-72 0 l0 34 l0 0 l0 0 ZM790 646 l24 0 l0 -174 l-32 -106 l-96 0 l48 -140 l-90 -293 l136 0 l34 113 l44 -113 l134 0 l-106 299 l70 242 l0 172 l32 0 l0 112 l-190 0 l4 36 l-114 0 l-40 -390 l116 0 l26 242 l0 0 l0 0 Z" /><glyph glyph-name="" unicode="&#x5f7b;" d="M566 -67 l138 0 l78 717 l32 0 l-12 -584 l-40 0 l0 -133 l188 0 l8 849 l-392 0 l0 -132 l78 0 l-78 -717 l0 0 l0 0 ZM338 416 l0 -300 l-46 -16 l0 -153 l276 93 l0 152 l-82 -28 l0 266 l88 16 l0 142 l-88 -16 l0 234 l-148 0 l0 -250 l-56 -8 l0 -140 l56 8 l0 0 l0 0 ZM94 230 l0 -297 l148 0 l0 369 l-46 0 l78 202 l-144 0 l-106 -274 l70 0 l0 0 l0 0 ZM38 574 l144 0 l90 232 l-142 0 l-92 -232 l0 0 l0 0 Z" /><glyph glyph-name="" unicode="&#x6f88;" d="M630 456 l-376 0 l0 -523 l144 0 l0 127 l88 0 l0 -32 l-42 0 l0 -95 l186 0 l0 523 l0 0 l0 0 ZM402 344 l84 0 l0 -32 l-84 0 l0 32 l0 0 l0 0 ZM402 202 l84 0 l0 -32 l-84 0 l0 32 l0 0 l0 0 ZM790 622 l28 0 l0 -154 l-30 -90 l-112 0 l54 -160 l-88 -285 l136 0 l30 93 l32 -93 l142 0 l-102 293 l78 232 l0 164 l28 0 l0 136 l-186 0 l4 48 l-132 0 l-32 -384 l134 0 l16 200 l0 0 l0 0 ZM224 276 l-146 0 l-32 -343 l144 0 l34 343 l0 0 l0 0 ZM226 718 l-150 96 l0 -162 l150 -96 l0 162 l0 0 l0 0 ZM206 482 l-158 104 l0 -168 l158 -100 l0 164 l0 0 l0 0 ZM472 644 l8 -48 l-56 0 l22 64 l184 0 l0 108 l-110 0 l-18 40 l-146 0 l16 -40 l-112 0 l0 -108 l60 0 l-64 -172 l372 0 l-32 156 l-124 0 l0 0 l0 0 Z" /><glyph glyph-name="" unicode="&#x81e3;" d="M218 658 l254 0 l0 -98 l-254 0 l0 98 l0 0 l0 0 ZM218 62 l0 116 l254 0 l0 -116 l-254 0 l0 0 l0 0 ZM768 426 l0 -114 l-550 0 l0 114 l550 0 l0 0 l0 0 ZM616 62 l0 116 l296 0 l0 382 l-296 0 l0 98 l334 0 l0 132 l-876 0 l0 -857 l884 0 l0 129 l-342 0 l0 0 l0 0 Z" /><glyph glyph-name="" unicode="&#x8fb0;" d="M30 -65 l142 0 l38 195 l0 166 l70 0 l0 -224 l-46 -4 l0 -139 l352 26 l0 139 l-160 -14 l0 216 l542 0 l0 136 l-758 0 l0 222 l760 0 l0 134 l-902 0 l0 -638 l-38 -215 l0 0 l0 0 ZM240 612 l0 -138 l698 0 l0 138 l-698 0 l0 0 l0 0 ZM726 200 l-164 80 l0 -162 l392 -201 l0 163 l-84 44 l54 136 l-170 0 l-28 -60 l0 0 l0 0 Z" /><glyph glyph-name="" unicode="&#x5c18;" d="M96 320 l0 -136 l340 0 l0 -118 l-382 0 l0 -133 l912 0 l0 133 l-382 0 l0 118 l344 0 l0 136 l-344 0 l0 76 l-148 0 l0 -76 l-340 0 l0 0 l0 0 ZM196 466 l124 294 l-146 0 l-130 -294 l152 0 l0 0 l0 0 ZM984 466 l-128 294 l-152 0 l126 -294 l154 0 l0 0 l0 0 ZM584 808 l-148 0 l0 -374 l148 0 l0 374 l0 0 l0 0 Z" /><glyph glyph-name="" unicode="&#x6668;" d="M968 210 l-752 0 l0 144 l748 0 l0 86 l-892 0 l0 -332 l-42 -175 l146 0 l40 155 l0 34 l52 0 l0 -78 l-38 -2 l0 -115 l300 18 l0 117 l-118 -8 l0 68 l556 0 l0 88 l0 0 l0 0 ZM932 472 l0 318 l-840 0 l0 -318 l840 0 l0 0 l0 0 ZM722 72 l-168 28 l0 -115 l402 -64 l0 109 l-98 18 l18 48 l-144 0 l-10 -24 l0 0 l0 0 ZM236 590 l552 0 l0 -36 l-552 0 l0 36 l0 0 l0 0 ZM236 670 l0 34 l552 0 l0 -34 l-552 0 l0 0 l0 0 ZM940 242 l0 80 l-694 0 l0 -80 l694 0 l0 0 l0 0 Z" /><glyph glyph-name="" unicode="&#x5ff1;" d="M998 160 l-128 0 l-18 -94 l-36 0 l0 284 l-142 0 l0 -417 l286 0 l38 227 l0 0 l0 0 ZM732 486 l0 136 l82 0 l0 -218 l136 0 l0 350 l-218 0 l0 48 l-142 0 l0 -48 l-216 0 l0 -350 l138 0 l0 218 l78 0 l0 -114 l-258 -575 l156 0 l244 553 l0 0 l0 0 ZM160 802 l0 -869 l134 0 l0 563 l52 -46 l0 178 l-52 38 l0 136 l-134 0 l0 0 l0 0 ZM156 630 l-102 0 l-18 -302 l108 0 l12 302 l0 0 l0 0 Z" /><glyph glyph-name="" unicode="&#x6c89;" d="M310 560 l148 0 l0 94 l352 0 l0 -94 l148 0 l0 230 l-648 0 l0 -230 l0 0 l0 0 ZM136 296 l-80 -363 l154 0 l84 363 l-158 0 l0 0 l0 0 ZM272 726 l-194 104 l0 -162 l194 -108 l0 166 l0 0 l0 0 ZM264 492 l-214 120 l0 -168 l214 -116 l0 164 l0 0 l0 0 ZM1000 160 l-112 0 l-12 -92 l-28 0 l0 466 l-428 0 l0 -326 l-156 -273 l164 0 l140 253 l0 210 l132 0 l0 -463 l274 0 l26 225 l0 0 l0 0 Z" /><glyph glyph-name="" unicode="&#x9648;" d="M502 626 l-88 -332 l232 0 l0 -228 l-62 0 l0 -133 l210 0 l0 361 l166 0 l0 136 l-166 0 l0 118 l-148 0 l0 -118 l-42 0 l46 196 l332 0 l0 132 l-304 0 l12 48 l-146 0 l-12 -48 l-84 0 l0 -132 l54 0 l0 0 l0 0 ZM464 244 l-82 -291 l146 0 l78 291 l-142 0 l0 0 l0 0 ZM814 244 l44 -291 l140 0 l-40 291 l-144 0 l0 0 l0 0 ZM252 134 l-30 0 l0 -124 l164 0 l0 464 l-24 0 l82 308 l-386 0 l0 -849 l138 0 l0 721 l86 0 l-68 -236 l38 0 l0 -284 l0 0 l0 0 Z" /><glyph glyph-name="" unicode="&#x8d81;" d="M400 66 l-20 14 l0 102 l128 0 l0 132 l-128 0 l0 80 l132 0 l0 136 l-156 0 l0 80 l144 0 l0 136 l-144 0 l0 66 l-148 0 l0 -66 l-136 0 l0 -136 l136 0 l0 -80 l-152 0 l0 -136 l180 0 l0 -212 l-36 14 l0 146 l-134 0 l0 -172 l-24 -237 l144 0 l8 109 l154 -109 l628 0 l0 133 l-576 0 l0 0 l0 0 ZM744 660 l218 -110 l0 144 l-218 114 l-224 -120 l0 -148 l224 120 l0 0 l0 0 ZM960 308 l-418 -96 l0 -132 l418 96 l0 132 l0 0 l0 0 ZM920 466 l-362 -80 l0 -124 l362 80 l0 124 l0 0 l0 0 ZM850 604 l-274 -60 l0 -114 l274 60 l0 114 l0 0 l0 0 Z" /><glyph glyph-name="" unicode="&#x886c;" d="M552 -67 l366 0 l0 609 l64 0 l0 136 l-64 0 l0 128 l-146 0 l0 -128 l-314 0 l0 -136 l314 0 l0 -476 l-220 0 l0 -133 l0 0 l0 0 ZM562 194 l154 0 l-76 264 l-146 0 l68 -264 l0 0 l0 0 ZM272 428 l126 232 l-370 0 l0 -132 l148 0 l-154 -274 l118 0 l0 -321 l142 0 l0 305 l166 -120 l0 186 l-40 30 l66 116 l-142 0 l-28 -44 l-32 22 l0 0 l0 0 ZM114 806 l50 -116 l154 0 l-54 116 l-150 0 l0 0 l0 0 Z" /><glyph glyph-name="" unicode="&#x6491;" d="M314 288 l0 150 l-56 -24 l0 120 l62 0 l0 136 l-62 0 l0 142 l-144 0 l0 -142 l-64 0 l0 -136 l64 0 l0 -172 l-64 -28 l0 -152 l64 30 l0 -146 l-52 0 l0 -133 l196 0 l0 331 l56 24 l0 0 l0 0 ZM804 796 l-28 -52 l-44 0 l0 70 l-144 0 l0 -70 l-44 0 l-28 52 l-128 0 l26 -52 l-72 0 l0 -126 l144 0 l0 32 l336 0 l0 -32 l144 0 l0 126 l-62 0 l28 52 l-128 0 l0 0 l0 0 ZM374 594 l0 -182 l560 0 l0 182 l-560 0 l0 0 l0 0 ZM794 520 l0 -30 l-276 0 l0 30 l276 0 l0 0 l0 0 ZM344 284 l246 8 l0 -26 l-232 0 l0 -90 l232 0 l0 -30 l-256 0 l0 -92 l256 0 l0 -36 l-126 0 l0 -85 l274 0 l0 121 l240 0 l0 92 l-240 0 l0 30 l216 0 l0 90 l-216 0 l0 26 l228 8 l0 92 l-622 -20 l0 -88 l0 0 l0 0 Z" /><glyph glyph-name="" unicode="&#x79f0;" d="M354 578 l0 86 l86 8 l0 128 l-386 -32 l0 -132 l156 14 l0 -72 l-156 0 l0 -136 l156 0 l0 -509 l144 0 l0 251 l76 -72 l0 186 l-76 70 l0 74 l82 0 l0 136 l-82 0 l0 0 l0 0 ZM204 382 l-128 0 l-36 -403 l128 0 l36 403 l0 0 l0 0 ZM630 766 l6 40 l-130 0 l-54 -316 l132 0 l24 146 l226 0 l-18 -110 l132 0 l36 240 l-354 0 l0 0 l0 0 ZM592 -67 l194 0 l0 655 l-148 0 l0 -526 l-46 0 l0 -129 l0 0 l0 0 ZM556 -9 l64 447 l-124 0 l-64 -447 l124 0 l0 0 l0 0 ZM804 438 l50 -447 l124 0 l-48 447 l-126 0 l0 0 l0 0 Z" /><glyph glyph-name="" unicode="&#x57ce;" d="M294 56 l0 134 l-50 -18 l0 302 l62 0 l0 136 l-62 0 l0 196 l-140 0 l0 -196 l-54 0 l0 -136 l54 0 l0 -352 l-50 -18 l0 -137 l240 89 l0 0 l0 0 ZM460 412 l46 0 l0 -252 l-30 0 l0 -116 l154 0 l0 488 l-170 0 l0 90 l184 0 l40 -414 l-88 -275 l128 0 l44 129 l100 -129 l84 0 l44 279 l-112 0 l-12 -72 l-40 68 l126 390 l-122 0 l-50 -152 l-16 176 l72 0 l0 136 l-86 0 l-6 52 l-128 0 l6 -52 l-300 0 l0 -598 l-54 -227 l140 0 l46 205 l0 274 l0 0 l0 0 ZM870 652 l116 0 l-32 148 l-116 0 l32 -148 l0 0 l0 0 Z" /><glyph glyph-name="" unicode="&#x6a59;" d="M366 710 l-58 0 l0 104 l-136 0 l0 -104 l-128 0 l0 -132 l128 0 l0 -645 l136 0 l0 295 l72 -70 l0 192 l-72 68 l0 160 l58 0 l0 132 l0 0 l0 0 ZM140 -21 l24 537 l-112 0 l-20 -537 l108 0 l0 0 l0 0 ZM396 782 l0 -108 l116 0 l-20 -46 l-96 30 l0 -110 l44 -16 l-72 -146 l72 0 l0 -240 l496 0 l0 244 l58 0 l-60 124 l34 14 l0 118 l-90 -26 l-16 30 l106 30 l0 110 l-148 -38 l-22 46 l-120 0 l172 -376 l-336 0 l162 360 l-280 0 l0 0 l0 0 ZM588 318 l200 0 l0 -64 l-200 0 l0 64 l0 0 l0 0 ZM744 42 l-100 0 l-42 74 l-148 0 l38 -74 l-104 0 l0 -109 l590 0 l0 109 l-88 0 l32 74 l-142 0 l-36 -74 l0 0 l0 0 ZM778 478 l0 110 l-192 0 l0 -110 l192 0 l0 0 l0 0 Z" /><glyph glyph-name="" unicode="&#x6210;" d="M690 810 l-148 0 l6 -56 l-450 0 l0 -594 l-32 -227 l146 0 l32 215 l0 238 l94 0 l0 -252 l-60 0 l0 -130 l206 0 l0 516 l-240 0 l0 100 l318 0 l46 -404 l-144 -283 l158 0 l76 149 l134 -149 l80 0 l74 323 l-140 0 l-24 -92 l-42 54 l164 352 l-148 0 l-68 -142 l-20 192 l98 0 l0 134 l-110 0 l-6 56 l0 0 l0 0 ZM802 808 l50 -176 l134 0 l-46 176 l-138 0 l0 0 l0 0 Z" /><glyph glyph-name="" unicode="&#x5448;" d="M238 598 l0 56 l548 0 l0 -56 l-548 0 l0 0 l0 0 ZM434 284 l0 -40 l-334 0 l0 -134 l334 0 l0 -44 l-380 0 l0 -133 l914 0 l0 133 l-386 0 l0 44 l344 0 l0 134 l-344 0 l0 40 l358 0 l0 136 l-856 0 l0 -136 l350 0 l0 0 l0 0 ZM934 464 l0 326 l-844 0 l0 -326 l844 0 l0 0 l0 0 Z" /><glyph glyph-name="" unicode="&#x4e58;" d="M440 524 l0 -328 l-376 -160 l0 -125 l376 155 l0 -133 l144 0 l0 133 l372 -153 l0 127 l-372 162 l0 322 l374 0 l0 114 l-374 0 l0 46 l338 6 l0 114 l-824 -18 l0 -116 l342 8 l0 -40 l-382 0 l0 -114 l382 0 l0 0 l0 0 ZM836 288 l-50 0 l0 66 l150 42 l0 110 l-150 -44 l0 28 l-150 0 l0 -314 l300 0 l26 178 l-112 0 l-14 -66 l0 0 l0 0 ZM388 490 l-150 0 l0 -30 l-166 0 l0 -112 l166 0 l0 -22 l-170 -52 l0 -122 l170 56 l0 -32 l150 0 l0 314 l0 0 l0 0 Z" /><glyph glyph-name="" unicode="&#x7a0b;" d="M634 298 l0 -46 l-168 0 l0 -136 l168 0 l0 -50 l-200 0 l0 -133 l536 0 l0 133 l-188 0 l0 50 l164 0 l0 136 l-164 0 l0 46 l176 0 l0 136 l-504 0 l0 -136 l180 0 l0 0 l0 0 ZM458 478 l498 0 l0 314 l-498 0 l0 -314 l0 0 l0 0 ZM808 610 l-198 0 l0 50 l198 0 l0 -50 l0 0 l0 0 ZM350 578 l0 88 l76 6 l0 130 l-372 -30 l0 -130 l152 12 l0 -76 l-152 0 l0 -136 l152 0 l0 -509 l144 0 l0 253 l60 -64 l0 180 l-60 64 l0 76 l76 0 l0 136 l-76 0 l0 0 l0 0 ZM200 382 l-128 0 l-30 -403 l128 0 l30 403 l0 0 l0 0 Z" /><glyph glyph-name="" unicode="&#x60e9;" d="M292 406 l0 -132 l664 0 l0 132 l-222 0 l0 70 l188 0 l0 128 l-188 0 l0 54 l212 0 l0 132 l-620 0 l0 -132 l264 0 l0 -252 l-74 0 l0 214 l-144 0 l0 -214 l-80 0 l0 0 l0 0 ZM24 622 l146 0 l102 184 l-148 0 l-100 -184 l0 0 l0 0 ZM118 448 l0 -190 l148 0 l0 252 l-6 0 l62 124 l-136 0 l-108 -186 l40 0 l0 0 l0 0 ZM122 218 l-50 -273 l140 0 l46 273 l-136 0 l0 0 l0 0 ZM788 218 l-148 0 l0 -174 l-222 0 l0 182 l-148 0 l0 -291 l518 0 l0 283 l0 0 l0 0 ZM438 248 l46 -146 l138 0 l-48 146 l-136 0 l0 0 l0 0 ZM800 218 l48 -273 l136 0 l-48 273 l-136 0 l0 0 l0 0 Z" /><glyph glyph-name="" unicode="&#x6f84;" d="M274 276 l-154 0 l-80 -343 l154 0 l80 343 l0 0 l0 0 ZM254 696 l-194 112 l0 -154 l194 -120 l0 162 l0 0 l0 0 ZM234 480 l-202 120 l0 -158 l202 -118 l0 156 l0 0 l0 0 ZM712 52 l-152 0 l-44 88 l-150 0 l44 -88 l-118 0 l0 -113 l672 0 l0 113 l-98 0 l48 88 l-148 0 l-54 -88 l0 0 l0 0 ZM624 782 l-324 0 l0 -108 l126 0 l-28 -48 l-98 28 l0 -114 l40 -10 l-68 -114 l72 0 l0 -236 l580 0 l0 240 l58 0 l-52 92 l26 10 l0 122 l-84 -32 l-22 40 l90 26 l0 114 l-146 -42 l-24 42 l-136 0 l198 -340 l-396 0 l188 330 l0 0 l0 0 ZM740 498 l0 114 l-220 0 l0 -114 l220 0 l0 0 l0 0 ZM492 348 l284 0 l0 -60 l-284 0 l0 60 l0 0 l0 0 Z" /><glyph glyph-name="" unicode="&#x8bda;" d="M36 410 l56 0 l0 -308 l-24 -16 l0 -151 l222 127 l0 152 l-54 -32 l0 364 l-200 0 l0 -136 l0 0 l0 0 ZM84 658 l204 -106 l0 156 l-204 106 l0 -156 l0 0 l0 0 ZM454 412 l46 0 l0 -252 l-30 0 l0 -116 l160 0 l0 488 l-176 0 l0 90 l194 0 l42 -436 l-80 -253 l110 0 l40 129 l108 -129 l82 0 l46 285 l-110 0 l-16 -82 l-46 68 l118 386 l-102 0 l-50 -160 l-16 192 l68 0 l0 136 l-78 0 l-6 52 l-130 0 l6 -52 l-316 0 l0 -604 l-44 -221 l144 0 l36 201 l0 278 l0 0 l0 0 ZM868 654 l122 0 l-30 146 l-122 0 l30 -146 l0 0 l0 0 Z" /><glyph glyph-name="" unicode="&#x627f;" d="M582 264 l134 0 l0 134 l-134 0 l0 34 l98 0 l0 136 l-98 0 l0 4 l336 168 l0 50 l-820 0 l0 -130 l396 0 l-56 -30 l0 -62 l-104 0 l0 -136 l104 0 l0 -34 l-138 0 l0 -134 l138 0 l0 -40 l-172 0 l0 -128 l172 0 l0 -32 l-112 0 l0 -131 l256 0 l0 163 l160 0 l0 128 l-160 0 l0 40 l0 0 l0 0 ZM840 -67 l142 0 l-102 477 l88 74 l0 168 l-126 -102 l-10 46 l-132 0 l140 -663 l0 0 l0 0 ZM322 602 l-266 0 l0 -132 l98 0 l-112 -537 l144 0 l136 669 l0 0 l0 0 Z" /><glyph glyph-name="" unicode="&#x901e;" d="M276 -67 l696 0 l0 125 l-640 0 l-90 98 l0 382 l-192 0 l0 -132 l48 0 l0 -278 l-36 -32 l0 -189 l126 109 l88 -83 l0 0 l0 0 ZM84 662 l192 -104 l0 156 l-192 100 l0 -152 l0 0 l0 0 ZM936 518 l0 272 l-612 0 l0 -272 l612 0 l0 0 l0 0 ZM788 636 l-316 0 l0 36 l316 0 l0 -36 l0 0 l0 0 ZM942 378 l0 108 l-624 0 l0 -108 l240 0 l0 -36 l-216 0 l0 -106 l216 0 l0 -36 l-244 0 l0 -110 l634 0 l0 110 l-242 0 l0 36 l214 0 l0 106 l-214 0 l0 36 l236 0 l0 0 l0 0 Z" /><glyph glyph-name="" unicode="&#x79e4;" d="M782 228 l0 426 l194 0 l0 136 l-542 0 l0 -136 l200 0 l0 -426 l-218 0 l0 -136 l218 0 l0 -159 l148 0 l0 159 l202 0 l0 136 l-202 0 l0 0 l0 0 ZM978 604 l-140 0 l-46 -316 l144 0 l42 316 l0 0 l0 0 ZM444 610 l44 -324 l138 0 l-46 324 l-136 0 l0 0 l0 0 ZM338 584 l0 86 l66 8 l0 128 l-348 -32 l0 -132 l138 14 l0 -72 l-138 0 l0 -136 l138 0 l0 -515 l144 0 l0 269 l48 -42 l0 172 l-48 42 l0 74 l78 0 l0 136 l-78 0 l0 0 l0 0 ZM186 398 l-130 0 l-22 -413 l130 0 l22 413 l0 0 l0 0 Z" /><glyph glyph-name="" unicode="&#x5403;" d="M408 762 l-340 0 l0 -783 l340 0 l0 783 l0 0 l0 0 ZM264 626 l0 -512 l-52 0 l0 512 l52 0 l0 0 l0 0 ZM718 378 l-280 -368 l0 -77 l510 0 l44 217 l-138 0 l-20 -84 l-176 0 l280 368 l0 76 l-488 0 l0 -132 l268 0 l0 0 l0 0 ZM644 804 l-140 0 l-78 -254 l148 0 l20 62 l386 0 l0 132 l-352 0 l16 60 l0 0 l0 0 Z" /><glyph glyph-name="" unicode="&#x75f4;" d="M36 154 l108 82 l0 -80 l-76 -223 l148 0 l66 201 l0 516 l700 0 l0 126 l-310 0 l-22 38 l-164 0 l20 -38 l-362 0 l0 -378 l-108 -76 l0 -168 l0 0 l0 0 ZM18 658 l16 -208 l104 0 l-16 208 l-104 0 l0 0 l0 0 ZM404 366 l16 128 l12 0 l0 -172 l-112 0 l0 -108 l94 0 l-138 -281 l142 0 l70 149 l48 -149 l138 0 l-108 281 l78 0 l0 108 l-80 0 l0 172 l70 0 l0 112 l-200 0 l4 26 l-110 0 l-36 -266 l112 0 l0 0 l0 0 ZM964 -27 l0 635 l-292 0 l0 -635 l292 0 l0 0 l0 0 ZM800 82 l0 418 l36 0 l0 -418 l-36 0 l0 0 l0 0 Z" /><glyph glyph-name="" unicode="&#x6301;" d="M284 -67 l0 319 l60 24 l0 148 l-60 -24 l0 134 l66 0 l0 136 l-66 0 l0 132 l-144 0 l0 -132 l-82 0 l0 -136 l82 0 l0 -182 l-82 -32 l0 -152 l82 32 l0 -134 l-68 0 l0 -133 l212 0 l0 0 l0 0 ZM968 418 l0 136 l-220 0 l0 64 l196 0 l0 136 l-196 0 l0 52 l-148 0 l0 -52 l-192 0 l0 -136 l192 0 l0 -64 l-220 0 l0 -136 l588 0 l0 0 l0 0 ZM766 220 l0 -152 l-136 0 l0 -135 l284 0 l0 287 l54 0 l0 132 l-54 0 l0 36 l-148 0 l0 -36 l-392 0 l0 -132 l392 0 l0 0 l0 0 ZM412 70 l182 -70 l0 136 l-182 70 l0 -136 l0 0 l0 0 Z" /><glyph glyph-name="" unicode="&#x5319;" d="M206 688 l244 0 l0 -32 l-244 0 l0 32 l0 0 l0 0 ZM450 524 l-244 0 l0 32 l244 0 l0 -32 l0 0 l0 0 ZM956 780 l-162 -152 l0 164 l-144 0 l0 -672 l292 0 l40 234 l-130 0 l-22 -102 l-36 0 l0 194 l162 152 l0 182 l0 0 l0 0 ZM594 416 l0 376 l-532 0 l0 -376 l532 0 l0 0 l0 0 ZM210 224 l-144 0 l0 -88 l-42 -203 l146 0 l16 71 l88 -71 l708 0 l0 129 l-580 0 l0 38 l208 0 l0 132 l-208 0 l0 32 l216 0 l0 122 l-584 0 l0 -122 l220 0 l0 -146 l-44 36 l0 70 l0 0 l0 0 Z" /><glyph glyph-name="" unicode="&#x6c60;" d="M710 550 l104 22 l-10 -250 l-56 0 l0 -136 l192 0 l28 562 l-258 -56 l0 118 l-140 0 l0 -146 l-76 -14 l0 112 l-144 0 l0 -136 l-44 -8 l0 -140 l44 8 l0 -553 l584 0 l40 197 l-134 0 l-14 -64 l-332 0 l0 446 l76 14 l0 -380 l140 0 l0 404 l0 0 l0 0 ZM132 286 l-82 -353 l154 0 l86 353 l-158 0 l0 0 l0 0 ZM274 714 l-202 106 l0 -164 l202 -104 l0 162 l0 0 l0 0 ZM250 496 l-198 106 l0 -168 l198 -106 l0 168 l0 0 l0 0 Z" /><glyph glyph-name="" unicode="&#x8fdf;" d="M510 386 l132 0 l168 -266 l170 0 l-164 266 l124 0 l0 404 l-578 0 l0 -436 l-44 -232 l158 0 l34 208 l0 56 l0 0 l0 0 ZM510 522 l0 132 l278 0 l0 -132 l-278 0 l0 0 l0 0 ZM322 -67 l660 0 l0 133 l-608 0 l-102 86 l0 386 l-212 0 l0 -132 l64 0 l0 -274 l-54 -46 l0 -183 l140 119 l112 -89 l0 0 l0 0 ZM98 674 l208 -114 l0 160 l-208 110 l0 -156 l0 0 l0 0 Z" /><glyph glyph-name="" unicode="&#x5f1b;" d="M70 -67 l294 0 l8 421 l-176 0 l8 90 l160 0 l0 348 l-312 0 l0 -136 l172 0 l0 -80 l-150 0 l-28 -354 l186 0 l-4 -156 l-158 0 l0 -133 l0 0 l0 0 ZM756 150 l0 430 l70 14 l-10 -278 l-30 0 l0 -136 l166 0 l22 598 l-218 -54 l0 82 l-136 0 l0 -114 l-60 -12 l0 72 l-136 0 l0 -102 l-30 -6 l0 -146 l30 6 l0 -571 l524 0 l40 189 l-134 0 l-16 -64 l-278 0 l0 478 l60 12 l0 -398 l136 0 l0 0 l0 0 Z" /><glyph glyph-name="" unicode="&#x9a70;" d="M772 150 l0 430 l70 20 l-10 -284 l-34 0 l0 -136 l170 0 l20 602 l-216 -58 l0 82 l-136 0 l0 -112 l-60 -14 l0 72 l-136 0 l0 -102 l-30 -8 l0 -146 l30 8 l0 -571 l518 0 l40 185 l-132 0 l-16 -60 l-274 0 l0 478 l60 16 l0 -402 l136 0 l0 0 l0 0 ZM78 66 l0 -133 l304 0 l28 503 l-54 0 l44 356 l-348 0 l0 -136 l192 0 l-26 -220 l-38 0 l14 180 l-132 0 l-22 -316 l214 0 l-10 -234 l-166 0 l0 0 l0 0 ZM36 94 l184 42 l0 136 l-184 -42 l0 -136 l0 0 l0 0 Z" /><glyph glyph-name="" unicode="&#x803b;" d="M682 62 l0 642 l-136 0 l0 -642 l-46 0 l0 -129 l470 0 l0 129 l-94 0 l0 364 l88 0 l0 132 l-88 0 l0 242 l-136 0 l0 -738 l-58 0 l0 0 l0 0 ZM222 654 l88 0 l0 -80 l-88 0 l0 80 l0 0 l0 0 ZM222 442 l88 0 l0 -80 l-88 0 l0 80 l0 0 l0 0 ZM310 148 l-88 -14 l0 96 l88 0 l0 -82 l0 0 l0 0 ZM52 104 l0 -133 l258 37 l0 -75 l140 0 l0 99 l38 8 l0 138 l-38 -10 l0 486 l46 0 l0 136 l-452 0 l0 -136 l42 0 l0 -544 l-34 -6 l0 0 l0 0 Z" /><glyph glyph-name="" unicode="&#x9f7f;" d="M220 66 l0 332 l-148 0 l0 -465 l880 0 l0 465 l-144 0 l0 -332 l-588 0 l0 0 l0 0 ZM430 578 l-122 0 l0 194 l-144 0 l0 -194 l-114 0 l0 -136 l920 0 l0 136 l-396 0 l0 50 l350 0 l0 136 l-350 0 l0 42 l-144 0 l0 -228 l0 0 l0 0 ZM516 202 l236 -128 l0 154 l-168 96 l0 84 l-144 0 l0 -92 l-166 -82 l0 -160 l242 128 l0 0 l0 0 Z" /><glyph glyph-name="" unicode="&#x4f88;" d="M482 228 l334 0 l0 -46 l-142 -34 l-28 40 l-164 0 l52 -78 l-226 -54 l0 -139 l656 161 l0 286 l-564 0 l-136 -226 l164 0 l54 90 l0 0 l0 0 ZM152 810 l-120 -420 l62 0 l0 -457 l148 0 l0 545 l-34 0 l96 332 l-152 0 l0 0 l0 0 ZM952 782 l-420 0 l20 30 l-152 0 l-140 -242 l158 0 l46 76 l340 0 l0 -32 l-180 -48 l-18 34 l-164 0 l42 -78 l-176 -48 l0 -128 l644 172 l0 264 l0 0 l0 0 Z" /><glyph glyph-name="" unicode="&#x5c3a;" d="M264 652 l508 0 l0 -184 l-508 0 l0 184 l0 0 l0 0 ZM804 -67 l184 0 l-314 399 l246 0 l0 454 l-804 0 l0 -612 l-60 -241 l146 0 l62 221 l0 178 l224 0 l316 -399 l0 0 l0 0 Z" /><glyph glyph-name="" unicode="&#x8d64;" d="M122 320 l-74 -343 l146 0 l74 343 l-146 0 l0 0 l0 0 ZM748 320 l68 -343 l146 0 l-66 343 l-148 0 l0 0 l0 0 ZM576 62 l-96 0 l0 -129 l242 0 l0 447 l228 0 l0 128 l-366 0 l0 102 l334 0 l0 134 l-334 0 l0 46 l-144 0 l0 -46 l-338 0 l0 -134 l338 0 l0 -102 l-370 0 l0 -128 l226 0 l0 -226 l-72 -221 l154 0 l64 197 l0 250 l134 0 l0 -318 l0 0 l0 0 Z" /><glyph glyph-name="" unicode="&#x7fc5;" d="M444 206 l114 96 l0 -84 l-84 0 l0 -124 l216 0 l0 696 l-244 0 l0 -120 l112 0 l0 -218 l-114 -96 l0 -150 l0 0 l0 0 ZM720 220 l100 86 l0 -88 l-84 0 l0 -124 l216 0 l0 696 l-242 0 l0 -120 l110 0 l0 -216 l-100 -90 l0 -144 l0 0 l0 0 ZM726 470 l90 0 l-20 168 l-90 0 l20 -168 l0 0 l0 0 ZM460 470 l92 0 l-20 168 l-92 0 l20 -168 l0 0 l0 0 ZM308 -67 l656 0 l0 133 l-578 0 l-62 94 l104 208 l0 158 l-124 0 l0 92 l110 0 l0 136 l-110 0 l0 50 l-144 0 l0 -50 l-114 0 l0 -136 l114 0 l0 -92 l-114 0 l0 -132 l234 0 l0 -6 l-42 -78 l-30 44 l-162 0 l112 -194 l-128 -227 l166 0 l50 89 l62 -89 l0 0 l0 0 Z" /><glyph glyph-name="" unicode="&#x65a5;" d="M440 218 l196 -56 l0 -229 l148 0 l0 191 l134 -40 l0 140 l-134 40 l0 114 l172 0 l0 134 l-680 0 l0 126 l646 30 l0 130 l-792 -38 l0 -566 l-70 -261 l148 0 l68 241 l0 204 l360 0 l0 -78 l-196 58 l0 -140 l0 0 l0 0 Z" /><glyph glyph-name="" unicode="&#x5145;" d="M414 790 l22 -54 l-366 0 l0 -132 l140 0 l-156 -300 l198 0 l-200 -371 l166 0 l200 371 l168 0 l0 -371 l346 0 l44 207 l-138 0 l-20 -78 l-88 0 l0 242 l224 0 l-84 244 l-148 0 l38 -116 l-476 0 l84 172 l586 0 l0 132 l-348 0 l-26 54 l-166 0 l0 0 l0 0 Z" /><glyph glyph-name="" unicode="&#x51b2;" d="M62 760 l74 -272 l158 0 l-82 272 l-150 0 l0 0 l0 0 ZM204 -33 l98 431 l-150 0 l-100 -431 l152 0 l0 0 l0 0 ZM474 210 l0 344 l88 0 l0 -344 l-88 0 l0 0 l0 0 ZM800 554 l0 -344 l-90 0 l0 344 l90 0 l0 0 l0 0 ZM562 794 l0 -106 l-236 0 l0 -612 l236 0 l0 -141 l148 0 l0 141 l234 0 l0 612 l-234 0 l0 106 l-148 0 l0 0 l0 0 Z" /><glyph glyph-name="" unicode="&#x866b;" d="M236 350 l0 226 l202 0 l0 -226 l-202 0 l0 0 l0 0 ZM784 576 l0 -226 l-204 0 l0 226 l204 0 l0 0 l0 0 ZM438 708 l-344 0 l0 -488 l344 0 l0 -160 l-364 0 l0 -127 l898 0 l-62 233 l-144 0 l26 -106 l-212 0 l0 160 l350 0 l0 488 l-350 0 l0 80 l-142 0 l0 -80 l0 0 l0 0 Z" /><glyph glyph-name="" unicode="&#x5d07;" d="M396 -67 l190 0 l0 213 l382 0 l0 116 l-912 0 l0 -116 l382 0 l0 -88 l-42 0 l0 -125 l0 0 l0 0 ZM942 604 l0 178 l-140 0 l0 -62 l-220 0 l0 84 l-144 0 l0 -84 l-218 0 l0 62 l-140 0 l0 -178 l862 0 l0 0 l0 0 ZM198 440 l624 0 l0 -148 l140 0 l0 264 l-360 0 l-20 32 l-166 0 l14 -32 l-372 0 l0 -264 l140 0 l0 148 l0 0 l0 0 ZM780 292 l0 120 l-536 0 l0 -120 l536 0 l0 0 l0 0 ZM68 -69 l296 60 l0 135 l-296 -58 l0 -137 l0 0 l0 0 ZM952 -69 l0 131 l-292 64 l0 -137 l292 -58 l0 0 l0 0 Z" /><glyph glyph-name="" unicode="&#x5ba0;" d="M970 766 l-372 0 l-24 40 l-158 0 l18 -40 l-382 0 l0 -180 l144 0 l0 44 l630 0 l0 -40 l144 0 l0 176 l0 0 l0 0 ZM880 244 l0 156 l-228 -128 l0 98 l-148 0 l0 -166 l-196 -112 l0 -157 l196 111 l0 -113 l428 0 l44 213 l-142 0 l-18 -80 l-164 0 l0 44 l228 134 l0 0 l0 0 ZM792 410 l0 136 l-352 0 l8 54 l-148 0 l-8 -54 l-228 0 l0 -136 l188 0 l-176 -477 l158 0 l176 477 l382 0 l0 0 l0 0 ZM992 420 l-50 140 l-138 0 l52 -140 l136 0 l0 0 l0 0 Z" /><glyph glyph-name="" unicode="&#x62bd;" d="M948 -67 l0 785 l-228 0 l0 84 l-136 0 l0 -84 l-220 0 l0 -785 l584 0 l0 0 l0 0 ZM812 62 l-92 0 l0 198 l92 0 l0 -198 l0 0 l0 0 ZM584 62 l-84 0 l0 198 l84 0 l0 -198 l0 0 l0 0 ZM720 586 l92 0 l0 -194 l-92 0 l0 194 l0 0 l0 0 ZM500 586 l84 0 l0 -194 l-84 0 l0 194 l0 0 l0 0 ZM272 -67 l0 317 l60 26 l0 146 l-60 -24 l0 136 l64 0 l0 136 l-64 0 l0 132 l-144 0 l0 -132 l-70 0 l0 -136 l70 0 l0 -182 l-70 -28 l0 -150 l70 28 l0 -136 l-50 0 l0 -133 l194 0 l0 0 l0 0 Z" /><glyph glyph-name="" unicode="&#x916c;" d="M460 626 l-60 0 l0 38 l72 0 l0 132 l-428 0 l0 -132 l68 0 l0 -38 l-56 0 l0 -693 l404 0 l0 693 l0 0 l0 0 ZM156 494 l32 0 l-20 -222 l58 0 l22 222 l30 0 l0 -204 l88 0 l0 -58 l-210 0 l0 262 l0 0 l0 0 ZM366 62 l-210 0 l0 58 l210 0 l0 -58 l0 0 l0 0 ZM530 266 l14 292 l-64 0 l-14 -292 l64 0 l0 0 l0 0 ZM656 286 l50 0 l-12 270 l-52 0 l14 -270 l0 0 l0 0 ZM336 494 l30 0 l0 -76 l-30 0 l0 76 l0 0 l0 0 ZM232 626 l0 38 l48 0 l0 -38 l-48 0 l0 0 l0 0 ZM642 790 l-96 0 l0 -626 l-54 -231 l102 0 l48 207 l0 650 l0 0 l0 0 ZM806 -41 l2 811 l-100 0 l0 -811 l98 0 l0 0 l0 0 ZM972 -67 l0 863 l-98 0 l0 -863 l98 0 l0 0 l0 0 ZM820 290 l52 0 l-14 258 l-50 0 l12 -258 l0 0 l0 0 Z" /><glyph glyph-name="" unicode="&#x7574;" d="M60 -21 l416 0 l0 795 l-416 0 l0 -795 l0 0 l0 0 ZM178 318 l32 0 l0 -212 l-32 0 l0 212 l0 0 l0 0 ZM178 646 l32 0 l0 -200 l-32 0 l0 200 l0 0 l0 0 ZM354 318 l0 -212 l-32 0 l0 212 l32 0 l0 0 l0 0 ZM354 646 l0 -200 l-32 0 l0 200 l32 0 l0 0 l0 0 ZM688 342 l288 0 l0 112 l-248 0 l12 44 l206 0 l0 112 l-182 0 l8 36 l196 0 l0 112 l-176 0 l8 40 l-138 0 l-8 -40 l-146 0 l0 -112 l126 0 l-8 -36 l-98 0 l0 -112 l72 0 l-12 -44 l-92 0 l0 -112 l46 0 l-60 -156 l148 0 l12 32 l0 -66 l150 0 l0 -106 l-72 0 l0 -113 l216 0 l0 219 l36 0 l0 112 l-36 0 l0 48 l-144 0 l0 -48 l-132 0 l28 78 l0 0 l0 0 ZM694 110 l-162 58 l0 -128 l162 -57 l0 127 l0 0 l0 0 Z" /><glyph glyph-name="" unicode="&#x7a20;" d="M538 654 l288 0 l0 -588 l-22 0 l0 -133 l160 0 l0 853 l-564 0 l0 -640 l-60 -213 l152 0 l46 191 l0 530 l0 0 l0 0 ZM372 578 l-58 0 l0 78 l58 4 l0 132 l-318 -24 l0 -132 l120 8 l0 -66 l-120 0 l0 -136 l120 0 l0 -509 l140 0 l0 267 l56 -44 l0 174 l-56 48 l0 64 l58 0 l0 136 l0 0 l0 0 ZM150 -21 l20 403 l-114 0 l-22 -403 l116 0 l0 0 l0 0 ZM580 598 l0 -108 l44 0 l0 -52 l-60 0 l0 -108 l236 0 l0 108 l-60 0 l0 52 l44 0 l0 108 l-44 0 l0 26 l-116 0 l0 -26 l-44 0 l0 0 l0 0 ZM796 292 l-232 0 l0 -299 l232 0 l0 299 l0 0 l0 0 ZM666 184 l32 0 l0 -84 l-32 0 l0 84 l0 0 l0 0 Z" /><glyph glyph-name="" unicode="&#x6101;" d="M380 478 l0 12 l110 0 l0 132 l-110 0 l0 42 l100 8 l0 134 l-390 -26 l0 -136 l146 12 l0 -34 l-172 0 l0 -132 l28 0 l66 0 l64 0 l14 0 l0 -238 l144 0 l0 78 l96 -42 l0 146 l-96 44 l0 0 l0 0 ZM736 372 l92 -114 l168 0 l-188 254 l0 292 l-148 0 l0 -302 l-166 -240 l168 0 l74 110 l0 0 l0 0 ZM516 518 l128 0 l-18 244 l-128 0 l18 -244 l0 0 l0 0 ZM800 192 l36 -249 l144 0 l-38 249 l-142 0 l0 0 l0 0 ZM850 752 l-28 -234 l134 0 l24 234 l-130 0 l0 0 l0 0 ZM100 192 l-54 -249 l148 0 l52 249 l-146 0 l0 0 l0 0 ZM418 234 l48 -128 l148 0 l-54 128 l-142 0 l0 0 l0 0 ZM402 202 l-148 0 l0 -269 l532 0 l0 249 l-148 0 l0 -116 l-236 0 l0 136 l0 0 l0 0 ZM96 456 l-34 -194 l130 0 l32 194 l-128 0 l0 0 l0 0 Z" /><glyph glyph-name="" unicode="&#x7b79;" d="M444 676 l68 0 l2 96 l-234 0 l24 40 l-140 0 l-108 -180 l144 0 l28 44 l64 0 l26 -38 l148 0 l-22 38 l0 0 l0 0 ZM882 676 l88 0 l0 96 l-258 0 l20 40 l-140 0 l-90 -180 l142 0 l26 44 l58 0 l32 -44 l154 0 l-32 44 l0 0 l0 0 ZM322 504 l-10 -28 l-210 0 l0 -100 l174 0 l-16 -28 l-190 0 l0 -100 l134 0 l-178 -279 l162 0 l172 279 l594 0 l0 100 l-544 0 l14 28 l502 0 l0 100 l-466 0 l10 28 l484 0 l0 100 l-452 0 l6 18 l-148 0 l-4 -18 l-278 0 l0 -100 l244 0 l0 0 l0 0 ZM758 90 l0 -56 l-158 0 l0 -101 l302 0 l0 157 l48 0 l0 104 l-48 0 l0 28 l-144 0 l0 -28 l-450 0 l0 -104 l450 0 l0 0 l0 0 ZM524 44 l-252 34 l0 -111 l252 -32 l0 109 l0 0 l0 0 Z" /><glyph glyph-name="" unicode="&#x4ec7;" d="M998 168 l-124 0 l-16 -92 l-28 0 l32 626 l-246 0 l4 100 l-148 0 l-4 -100 l-140 0 l0 -132 l136 0 l-6 -54 l-162 -583 l158 0 l152 569 l6 68 l104 0 l-40 -627 l292 0 l30 225 l0 0 l0 0 ZM170 802 l-148 -412 l100 0 l0 -457 l148 0 l0 545 l-66 0 l116 324 l-150 0 l0 0 l0 0 Z" /><glyph glyph-name="" unicode="&#x7ef8;" d="M654 184 l32 0 l0 -84 l-32 0 l0 84 l0 0 l0 0 ZM784 292 l-232 0 l0 -299 l232 0 l0 299 l0 0 l0 0 ZM552 598 l0 -108 l54 0 l0 -52 l-74 0 l0 -108 l270 0 l0 108 l-80 0 l0 52 l58 0 l0 108 l-58 0 l0 28 l-116 0 l0 -28 l-54 0 l0 0 l0 0 ZM508 654 l320 0 l0 -588 l-24 0 l0 -133 l160 0 l0 853 l-592 0 l0 -640 l-60 -213 l150 0 l46 191 l0 530 l0 0 l0 0 ZM196 570 l88 224 l-138 0 l-130 -356 l130 0 l-102 -224 l300 0 l0 136 l-96 0 l118 270 l-134 0 l-22 -50 l-14 0 l0 0 l0 0 ZM44 -43 l288 95 l0 138 l-288 -90 l0 -143 l0 0 l0 0 Z" /><glyph glyph-name="" unicode="&#x4e11;" d="M768 450 l-330 0 l20 202 l322 0 l-12 -202 l0 0 l0 0 ZM760 314 l-16 -250 l-348 0 l26 250 l338 0 l0 0 l0 0 ZM96 652 l216 0 l-20 -202 l-188 0 l0 -136 l172 0 l-30 -250 l-190 0 l0 -131 l910 0 l0 131 l-76 0 l44 722 l-838 0 l0 -134 l0 0 l0 0 Z" /><glyph glyph-name="" unicode="&#x81ed;" d="M944 268 l0 508 l-394 0 l20 38 l-156 0 l-20 -38 l-314 0 l0 -508 l864 0 l0 0 l0 0 ZM800 540 l0 -32 l-576 0 l0 32 l576 0 l0 0 l0 0 ZM800 410 l0 -34 l-576 0 l0 34 l576 0 l0 0 l0 0 ZM224 668 l576 0 l0 -32 l-576 0 l0 32 l0 0 l0 0 ZM866 212 l-20 30 l-146 0 l18 -30 l-136 0 l0 24 l-144 0 l0 -24 l-378 0 l0 -102 l378 0 l0 -10 l-380 -72 l0 -111 l452 83 l452 -83 l0 107 l-380 76 l0 10 l378 0 l0 102 l-94 0 l0 0 l0 0 Z" /><glyph glyph-name="" unicode="&#x521d;" d="M688 654 l128 0 l-18 -588 l-138 0 l0 -133 l286 0 l18 857 l-536 0 l0 -136 l112 0 l-6 -114 l-154 -607 l150 0 l152 591 l6 130 l0 0 l0 0 ZM282 424 l116 234 l-354 0 l0 -132 l134 0 l-140 -272 l94 0 l0 -321 l144 0 l0 309 l134 -106 l0 184 l-22 20 l74 146 l-124 0 l-40 -76 l-16 14 l0 0 l0 0 ZM108 802 l58 -114 l156 0 l-62 114 l-152 0 l0 0 l0 0 Z" /><glyph glyph-name="" unicode="&#x51fa;" d="M778 752 l0 -252 l-198 0 l0 292 l-142 0 l0 -292 l-200 0 l0 252 l-140 0 l0 -384 l340 0 l0 -306 l-220 0 l0 236 l-140 0 l0 -365 l868 0 l0 365 l-140 0 l0 -236 l-226 0 l0 306 l338 0 l0 384 l-140 0 l0 0 l0 0 Z" /><glyph glyph-name="" unicode="&#x6a71;" d="M120 -21 l28 537 l-100 0 l-26 -537 l98 0 l0 0 l0 0 ZM328 710 l-50 0 l0 104 l-128 0 l0 -104 l-96 0 l0 -132 l96 0 l0 -645 l128 0 l0 297 l54 -34 l0 184 l-54 36 l0 162 l50 0 l0 132 l0 0 l0 0 ZM418 -67 l42 191 l0 558 l526 0 l0 108 l-638 0 l0 -650 l-50 -207 l120 0 l0 0 l0 0 ZM478 250 l232 0 l0 252 l-232 0 l0 -252 l0 0 l0 0 ZM578 398 l32 0 l0 -44 l-32 0 l0 44 l0 0 l0 0 ZM474 544 l242 0 l0 100 l-242 0 l0 -100 l0 0 l0 0 ZM608 210 l-10 -122 l-12 -2 l-22 124 l-98 0 l22 -142 l-30 -6 l0 -111 l286 51 l0 110 l-46 -8 l12 106 l-102 0 l0 0 l0 0 ZM788 42 l0 -109 l160 0 l0 511 l24 0 l0 108 l-24 0 l0 94 l-120 0 l0 -94 l-94 0 l0 -108 l90 0 l0 -402 l-36 0 l0 0 l0 0 ZM808 398 l-84 0 l16 -220 l82 0 l-14 220 l0 0 l0 0 Z" /><glyph glyph-name="" unicode="&#x53a8;" d="M978 660 l0 122 l-900 0 l0 -636 l-44 -213 l142 0 l36 193 l0 534 l766 0 l0 0 l0 0 ZM714 -67 l218 0 l0 489 l44 0 l0 134 l-44 0 l0 70 l-134 0 l0 -70 l-144 0 l0 -134 l144 0 l0 -358 l-84 0 l0 -131 l0 0 l0 0 ZM596 452 l-342 0 l0 -250 l342 0 l0 250 l0 0 l0 0 ZM240 494 l376 0 l0 126 l-376 0 l0 -126 l0 0 l0 0 ZM580 92 l26 74 l-142 0 l-28 -90 l-26 -4 l-26 94 l-134 0 l26 -104 l-46 -4 l0 -123 l408 34 l0 129 l-58 -6 l0 0 l0 0 ZM654 154 l130 0 l-36 216 l-128 0 l34 -216 l0 0 l0 0 ZM460 342 l0 -32 l-74 0 l0 32 l74 0 l0 0 l0 0 Z" /><glyph glyph-name="" unicode="&#x9504;" d="M620 148 l0 642 l-292 0 l0 -710 l-16 -4 l0 -129 l330 65 l0 140 l-22 -4 l0 0 l0 0 ZM768 -67 l42 677 l24 0 l-8 -544 l-30 0 l0 -133 l158 0 l8 809 l-142 0 l4 64 l-124 0 l-4 -64 l-50 0 l0 -132 l38 0 l-40 -677 l124 0 l0 0 l0 0 ZM490 116 l-32 -6 l0 100 l32 0 l0 -94 l0 0 l0 0 ZM458 438 l32 0 l0 -96 l-32 0 l0 96 l0 0 l0 0 ZM458 658 l32 0 l0 -88 l-32 0 l0 88 l0 0 l0 0 ZM246 806 l-144 0 l-76 -384 l72 0 l0 -64 l-52 0 l0 -136 l52 0 l0 -124 l-28 -14 l0 -157 l228 89 l0 150 l-56 -24 l0 80 l58 0 l0 136 l-58 0 l0 64 l48 0 l0 132 l-96 0 l10 48 l106 0 l0 132 l-80 0 l16 72 l0 0 l0 0 Z" /><glyph glyph-name="" unicode="&#x96cf;" d="M86 210 l216 0 l0 -132 l-238 0 l0 -129 l382 0 l0 629 l-26 0 l40 188 l-200 0 l14 44 l-150 0 l-102 -296 l50 0 l0 -68 l230 0 l0 -104 l-216 0 l0 -132 l0 0 l0 0 ZM214 634 l76 0 l-14 -56 l-80 0 l18 56 l0 0 l0 0 ZM450 490 l30 0 l0 -557 l144 0 l0 20 l354 0 l0 129 l-138 0 l0 72 l116 0 l0 136 l-116 0 l0 68 l116 0 l0 136 l-116 0 l0 64 l128 0 l0 136 l-326 0 l28 116 l-142 0 l-78 -320 l0 0 l0 0 ZM624 82 l0 72 l74 0 l0 -72 l-74 0 l0 0 l0 0 ZM624 290 l0 68 l74 0 l0 -68 l-74 0 l0 0 l0 0 ZM624 494 l0 64 l74 0 l0 -64 l-74 0 l0 0 l0 0 ZM696 808 l44 -100 l144 0 l-46 100 l-142 0 l0 0 l0 0 Z" /><glyph glyph-name="" unicode="&#x9664;" d="M196 -67 l0 717 l66 0 l-60 -276 l50 0 l0 -260 l-30 0 l0 -135 l172 0 l0 467 l-42 0 l68 336 l-366 0 l0 -849 l142 0 l0 0 l0 0 ZM642 438 l0 -56 l-212 0 l0 -136 l212 0 l0 -180 l-42 0 l0 -133 l186 0 l0 313 l196 0 l0 136 l-196 0 l0 56 l140 0 l0 126 l-430 0 l0 -126 l146 0 l0 0 l0 0 ZM708 660 l266 -108 l0 138 l-262 116 l-288 -116 l0 -144 l284 114 l0 0 l0 0 ZM556 -47 l58 243 l-142 0 l-64 -243 l148 0 l0 0 l0 0 ZM810 196 l42 -243 l140 0 l-44 243 l-138 0 l0 0 l0 0 Z" /><glyph glyph-name="" unicode="&#x695a;" d="M260 216 l-144 0 l0 -98 l-56 -40 l0 -173 l144 113 l222 -85 l538 0 l0 135 l-378 0 l0 38 l330 0 l0 114 l-330 0 l0 40 l204 0 l-4 -22 l164 0 l34 146 l-920 0 l0 -124 l374 0 l0 -184 l-178 66 l0 74 l0 0 l0 0 ZM800 414 l0 220 l156 0 l0 132 l-156 0 l0 40 l-140 0 l0 -40 l-136 0 l0 -132 l136 0 l0 -220 l140 0 l0 0 l0 0 ZM398 484 l108 0 l-14 120 l-108 0 l14 -120 l0 0 l0 0 ZM838 434 l132 0 l-32 170 l-130 0 l30 -170 l0 0 l0 0 ZM632 434 l24 170 l-122 0 l-22 -170 l120 0 l0 0 l0 0 ZM372 414 l0 220 l130 0 l0 132 l-130 0 l0 40 l-140 0 l0 -40 l-164 0 l0 -132 l164 0 l0 -220 l140 0 l0 0 l0 0 ZM182 434 l32 170 l-128 0 l-32 -170 l128 0 l0 0 l0 0 Z" /><glyph glyph-name="" unicode="&#x7840;" d="M440 366 l186 0 l0 -300 l-54 0 l0 242 l-148 0 l0 -375 l552 0 l0 375 l-148 0 l0 -242 l-54 0 l0 300 l188 0 l0 376 l-148 0 l0 -240 l-40 0 l0 304 l-148 0 l0 -304 l-38 0 l0 240 l-148 0 l0 -376 l0 0 l0 0 ZM230 526 l50 120 l130 0 l0 136 l-354 0 l0 -136 l84 0 l-136 -328 l64 0 l0 -365 l322 0 l0 573 l-160 0 l0 0 l0 0 ZM204 390 l50 0 l0 -304 l-50 0 l0 304 l0 0 l0 0 Z" /><glyph glyph-name="" unicode="&#x50a8;" d="M528 250 l0 -317 l432 0 l0 461 l-250 0 l28 44 l242 0 l0 136 l-80 0 l98 204 l-146 0 l-52 -114 l0 94 l-82 0 l0 48 l-132 0 l0 -48 l-88 0 l0 -136 l88 0 l0 -44 l-108 0 l0 -140 l98 0 l-126 -188 l78 0 l0 0 l0 0 ZM782 622 l-22 -44 l-42 0 l0 44 l64 0 l0 0 l0 0 ZM144 806 l-145 -416 l89 0 l0 -457 l140 0 l0 545 l-58 0 l114 328 l-140 0 l0 0 l0 0 ZM264 82 l0 -145 l226 137 l0 148 l-62 -38 l0 346 l-170 0 l0 -136 l34 0 l0 -294 l-28 -18 l0 0 l0 0 ZM300 626 l148 -86 l0 166 l-148 86 l0 -166 l0 0 l0 0 ZM824 64 l-160 0 l0 40 l160 0 l0 -40 l0 0 l0 0 ZM666 260 l158 0 l0 -40 l-158 0 l0 40 l0 0 l0 0 Z" /><glyph glyph-name="" unicode="&#x77d7;" d="M116 412 l-60 0 l0 -52 l916 0 l0 52 l-60 0 l0 284 l-328 0 l0 26 l364 0 l0 62 l-364 0 l0 22 l-148 0 l0 -22 l-360 0 l0 -62 l360 0 l0 -26 l-320 0 l0 -284 l0 0 l0 0 ZM496 250 l-124 0 l0 22 l130 0 l0 56 l-130 0 l0 18 l-148 0 l0 -18 l-156 0 l0 -56 l156 0 l0 -22 l-144 0 l0 -259 l-32 -2 l0 -60 l460 18 l0 57 l-12 -2 l0 248 l0 0 l0 0 ZM532 -7 l-12 0 l0 -60 l450 0 l0 60 l-26 0 l0 257 l-132 0 l0 22 l152 0 l0 56 l-152 0 l0 18 l-148 0 l0 -18 l-142 0 l0 -56 l142 0 l0 -22 l-132 0 l0 -257 l0 0 l0 0 ZM764 576 l0 -28 l-500 0 l0 28 l500 0 l0 0 l0 0 ZM764 644 l0 -28 l-500 0 l0 28 l500 0 l0 0 l0 0 ZM764 440 l0 -28 l-500 0 l0 28 l500 0 l0 0 l0 0 ZM764 508 l0 -28 l-500 0 l0 28 l500 0 l0 0 l0 0 ZM360 142 l0 -22 l-144 0 l0 22 l144 0 l0 0 l0 0 ZM216 20 l144 0 l0 -20 l-144 -5 l0 25 l0 0 l0 0 ZM808 12 l0 -19 l-140 0 l0 19 l140 0 l0 0 l0 0 ZM808 136 l0 -22 l-140 0 l0 22 l140 0 l0 0 l0 0 ZM808 198 l0 -22 l-140 0 l0 22 l140 0 l0 0 l0 0 ZM360 204 l0 -22 l-144 0 l0 22 l144 0 l0 0 l0 0 ZM808 74 l0 -22 l-140 0 l0 22 l140 0 l0 0 l0 0 ZM360 80 l0 -22 l-144 0 l0 22 l144 0 l0 0 l0 0 Z" /><glyph glyph-name="" unicode="&#x89e6;" d="M840 182 l12 -114 l-40 0 l0 170 l144 0 l0 448 l-144 0 l0 120 l-144 0 l0 -120 l-144 0 l0 -448 l144 0 l0 -170 l-150 0 l0 -135 l466 0 l-28 249 l-116 0 l0 0 l0 0 ZM834 550 l0 -176 l-34 0 l0 176 l34 0 l0 0 l0 0 ZM646 374 l0 176 l34 0 l0 -176 l-34 0 l0 0 l0 0 ZM372 122 l0 -72 l-18 0 l0 -117 l134 0 l0 677 l-42 0 l44 152 l-230 0 l18 44 l-140 0 l-112 -292 l48 0 l0 -394 l-46 -187 l122 0 l40 167 l0 22 l32 0 l0 -129 l110 0 l0 129 l40 0 l0 0 l0 0 ZM318 650 l-14 -40 l-94 0 l16 40 l92 0 l0 0 l0 0 ZM368 494 l0 -70 l-36 0 l0 70 l36 0 l0 0 l0 0 ZM368 310 l0 -72 l-36 0 l0 72 l36 0 l0 0 l0 0 ZM190 424 l0 70 l36 0 l0 -70 l-36 0 l0 0 l0 0 ZM190 238 l0 72 l36 0 l0 -72 l-36 0 l0 0 l0 0 Z" /><glyph glyph-name="" unicode="&#x5904;" d="M250 806 l-150 0 l-66 -366 l150 0 l34 186 l162 0 l0 -80 l-108 -190 l-28 28 l-202 0 l148 -160 l-174 -291 l162 0 l112 183 l164 -179 l500 0 l0 133 l-420 0 l-164 180 l158 270 l0 242 l-286 0 l8 44 l0 0 l0 0 ZM612 806 l0 -696 l148 0 l0 696 l-148 0 l0 0 l0 0 ZM854 354 l140 0 l-78 316 l-140 0 l78 -316 l0 0 l0 0 Z" /><glyph glyph-name="" unicode="&#x63e3;" d="M588 806 l0 -114 l-96 0 l0 84 l-138 0 l0 -208 l612 0 l0 208 l-138 0 l0 -84 l-102 0 l0 114 l-138 0 l0 0 l0 0 ZM44 -67 l208 0 l0 307 l62 20 l0 146 l-62 -20 l0 150 l68 0 l0 134 l-68 0 l0 136 l-140 0 l0 -136 l-70 0 l0 -134 l70 0 l0 -196 l-76 -24 l0 -146 l76 24 l0 -128 l-68 0 l0 -133 l0 0 l0 0 ZM794 220 l36 0 l0 -160 l-36 0 l0 160 l0 0 l0 0 ZM782 -21 l0 -46 l184 0 l0 421 l-302 0 l14 42 l294 0 l0 134 l-628 0 l0 -134 l184 0 l-14 -42 l-168 0 l0 -421 l136 0 l0 293 l30 0 l0 -247 l124 0 l0 241 l32 0 l0 -241 l114 0 l0 0 l0 0 Z" /><glyph glyph-name="" unicode="&#x5ddd;" d="M440 750 l0 -771 l148 0 l0 771 l-148 0 l0 0 l0 0 ZM764 806 l0 -873 l148 0 l0 873 l-148 0 l0 0 l0 0 ZM212 -67 l60 267 l0 602 l-148 0 l0 -590 l-62 -279 l150 0 l0 0 l0 0 Z" /><glyph glyph-name="" unicode="&#x7a7f;" d="M76 314 l92 0 l-94 -188 l222 0 l-248 -193 l216 0 l248 193 l218 0 l0 -76 l-166 0 l0 -117 l314 0 l0 193 l94 0 l0 120 l-94 0 l0 68 l74 0 l0 120 l-876 0 l0 -120 l0 0 l0 0 ZM730 314 l0 -68 l-440 0 l34 68 l406 0 l0 0 l0 0 ZM952 594 l0 172 l-354 0 l-16 40 l-148 0 l16 -40 l-378 0 l0 -172 l144 0 l0 52 l592 0 l0 -52 l144 0 l0 0 l0 0 ZM72 564 l0 -126 l400 62 l0 124 l-400 -60 l0 0 l0 0 ZM556 624 l0 -126 l400 -60 l0 126 l-400 60 l0 0 l0 0 Z" /><glyph glyph-name="" unicode="&#x4f20;" d="M480 598 l-22 -68 l-174 0 l0 -136 l130 0 l-68 -196 l418 0 l-60 -102 l-396 52 l0 -142 l628 -79 l0 131 l-80 12 l102 178 l0 86 l-408 0 l20 60 l402 0 l0 136 l-360 0 l22 68 l312 0 l0 136 l-272 0 l22 72 l-154 0 l-24 -72 l-198 0 l0 -136 l160 0 l0 0 l0 0 ZM158 806 l-148 -416 l78 0 l0 -457 l148 0 l0 545 l-42 0 l116 328 l-152 0 l0 0 l0 0 Z" /><glyph glyph-name="" unicode="&#x8239;" d="M968 -67 l0 453 l-424 0 l0 -453 l424 0 l0 0 l0 0 ZM982 558 l-42 0 l0 232 l-360 0 l-54 -364 l138 0 l32 228 l108 0 l0 -228 l178 0 l0 132 l0 0 l0 0 ZM692 250 l128 0 l0 -184 l-128 0 l0 184 l0 0 l0 0 ZM208 302 l164 0 l0 -236 l-102 0 l0 -133 l238 0 l0 837 l-164 0 l16 36 l-146 0 l-20 -36 l-122 0 l0 -332 l-40 0 l0 -136 l40 0 l0 -142 l-38 -227 l138 0 l36 223 l0 146 l0 0 l0 0 ZM208 634 l164 0 l0 -196 l-164 0 l0 196 l0 0 l0 0 ZM250 470 l116 0 l-40 132 l-114 0 l38 -132 l0 0 l0 0 ZM366 118 l-40 144 l-112 0 l42 -144 l110 0 l0 0 l0 0 Z" /><glyph glyph-name="" unicode="&#x5598;" d="M352 762 l-292 0 l0 -791 l292 0 l0 791 l0 0 l0 0 ZM192 104 l0 522 l32 0 l0 -522 l-32 0 l0 0 l0 0 ZM600 806 l0 -108 l-60 0 l0 74 l-148 0 l0 -198 l566 0 l0 198 l-148 0 l0 -74 l-62 0 l0 108 l-148 0 l0 0 l0 0 ZM808 226 l28 0 l0 -160 l-28 0 l0 160 l0 0 l0 0 ZM774 -21 l0 -46 l192 0 l0 429 l-272 0 l14 48 l258 0 l0 132 l-580 0 l0 -132 l172 0 l-14 -48 l-162 0 l0 -429 l130 0 l0 293 l28 0 l0 -247 l120 0 l0 247 l30 0 l0 -247 l84 0 l0 0 l0 0 Z" /><glyph glyph-name="" unicode="&#x4e32;" d="M584 550 l0 80 l192 0 l0 -80 l-192 0 l0 0 l0 0 ZM436 550 l-188 0 l0 80 l188 0 l0 -80 l0 0 l0 0 ZM816 132 l-232 0 l0 92 l232 0 l0 -92 l0 0 l0 0 ZM436 132 l-228 0 l0 92 l228 0 l0 -92 l0 0 l0 0 ZM64 360 l0 -363 l372 0 l0 -64 l148 0 l0 64 l376 0 l0 363 l-376 0 l0 54 l340 0 l0 352 l-340 0 l0 40 l-148 0 l0 -40 l-336 0 l0 -352 l336 0 l0 -54 l-372 0 l0 0 l0 0 Z" /><glyph glyph-name="" unicode="&#x75ae;" d="M342 412 l0 -479 l602 0 l36 169 l-140 0 l-12 -46 l-346 0 l0 230 l290 0 l-4 -40 l-186 0 l0 -120 l314 0 l16 286 l-570 0 l0 0 l0 0 ZM952 412 l0 134 l-324 96 l-318 -96 l0 -130 l322 96 l320 -100 l0 0 l0 0 ZM32 160 l112 82 l0 -106 l-92 -203 l150 0 l78 171 l0 542 l684 0 l0 124 l-314 0 l-12 36 l-158 0 l12 -36 l-348 0 l0 -246 l-28 130 l-108 0 l42 -186 l94 0 l0 -62 l-112 -78 l0 -168 l0 0 l0 0 Z" /><glyph glyph-name="" unicode="&#x7a97;" d="M954 -63 l0 549 l-420 0 l24 48 l-158 0 l-30 -48 l-292 0 l0 -549 l876 0 l0 0 l0 0 ZM218 42 l0 336 l596 0 l0 -336 l-596 0 l0 0 l0 0 ZM664 260 l0 -4 l-162 -40 l-100 22 l0 -46 l-152 -38 l0 -94 l244 64 l292 -60 l0 90 l-98 22 l92 24 l0 146 l-478 0 l-56 -146 l110 0 l26 60 l282 0 l0 0 l0 0 ZM812 668 l0 -48 l140 0 l0 150 l-356 0 l-14 36 l-154 0 l14 -36 l-370 0 l0 -150 l140 0 l0 48 l600 0 l0 0 l0 0 ZM954 488 l0 106 l-368 62 l0 -106 l368 -62 l0 0 l0 0 ZM78 596 l0 -108 l376 62 l0 106 l-376 -60 l0 0 l0 0 Z" /><glyph glyph-name="" unicode="&#x5e62;" d="M454 -63 l526 0 l0 95 l-198 0 l0 36 l186 0 l0 92 l-186 0 l0 34 l186 0 l0 326 l-496 0 l0 -326 l186 0 l0 -34 l-184 0 l0 -92 l184 0 l0 -36 l-204 0 l0 -95 l0 0 l0 0 ZM484 674 l60 0 l16 -32 l-94 0 l0 -96 l510 0 l0 96 l-88 0 l14 32 l58 0 l0 92 l-166 0 l-18 40 l-144 0 l18 -40 l-166 0 l0 -92 l0 0 l0 0 ZM760 642 l-66 0 l-18 32 l100 0 l-16 -32 l0 0 l0 0 ZM596 284 l0 32 l62 0 l0 -32 l-62 0 l0 0 l0 0 ZM844 316 l0 -32 l-62 0 l0 32 l62 0 l0 0 l0 0 ZM596 398 l0 32 l62 0 l0 -32 l-62 0 l0 0 l0 0 ZM844 430 l0 -32 l-62 0 l0 32 l62 0 l0 0 l0 0 ZM302 594 l28 0 l0 -472 l-16 0 l0 -116 l122 0 l0 724 l-134 0 l0 76 l-108 0 l0 -76 l-134 0 l0 -724 l106 0 l0 588 l28 0 l0 -661 l108 0 l0 661 l0 0 l0 0 Z" /><glyph glyph-name="" unicode="&#x5e8a;" d="M942 514 l-280 0 l0 80 l-148 0 l0 -80 l-268 0 l0 -136 l268 0 l0 -445 l148 0 l0 445 l280 0 l0 136 l0 0 l0 0 ZM212 630 l752 0 l0 136 l-336 0 l-20 40 l-152 0 l20 -40 l-404 0 l0 -588 l-38 -245 l140 0 l38 243 l0 454 l0 0 l0 0 ZM208 -27 l144 0 l122 343 l-146 0 l-120 -343 l0 0 l0 0 ZM818 -27 l146 0 l-116 343 l-146 0 l116 -343 l0 0 l0 0 Z" /><glyph glyph-name="" unicode="&#x95ef;" d="M630 76 l-234 0 l0 -119 l358 0 l24 423 l-70 0 l34 238 l-474 0 l0 -122 l322 0 l-20 -116 l-152 0 l18 80 l-134 0 l-46 -192 l384 0 l-10 -192 l0 0 l0 0 ZM964 -67 l0 857 l-576 0 l0 -136 l432 0 l0 -588 l-36 0 l0 -133 l180 0 l0 0 l0 0 ZM64 658 l0 -725 l144 0 l0 725 l-144 0 l0 0 l0 0 ZM242 116 l354 0 l0 110 l-354 0 l0 -110 l0 0 l0 0 ZM122 806 l102 -144 l156 0 l-102 144 l-156 0 l0 0 l0 0 Z" /><glyph glyph-name="" unicode="&#x521b;" d="M686 -67 l278 0 l0 873 l-144 0 l0 -736 l-134 0 l0 -137 l0 0 l0 0 ZM318 812 l-272 -160 l0 -162 l22 18 l0 -575 l474 0 l58 199 l-152 0 l-18 -62 l-206 0 l0 324 l180 0 l-6 -84 l-112 0 l0 -142 l250 0 l20 340 l30 -16 l0 162 l-268 158 l0 0 l0 0 ZM320 648 l192 -116 l-392 0 l200 116 l0 0 l0 0 ZM624 732 l0 -586 l144 0 l0 586 l-144 0 l0 0 l0 0 Z" /><glyph glyph-name="" unicode="&#x5439;" d="M588 -67 l124 173 l130 -173 l170 0 l-218 301 l16 30 l0 158 l-144 0 l0 -136 l-250 -353 l172 0 l0 0 l0 0 ZM650 746 l12 60 l-144 0 l-72 -482 l142 0 l42 286 l198 0 l-22 -164 l142 0 l34 300 l-332 0 l0 0 l0 0 ZM422 762 l-362 0 l0 -791 l362 0 l0 791 l0 0 l0 0 ZM198 104 l0 522 l86 0 l0 -522 l-86 0 l0 0 l0 0 Z" /><glyph glyph-name="" unicode="&#x708a;" d="M366 806 l-138 0 l0 -498 l-194 -375 l160 0 l112 217 l158 -132 l0 198 l-98 98 l0 128 l112 114 l0 196 l-112 -118 l0 172 l0 0 l0 0 ZM174 710 l-132 0 l26 -400 l132 0 l-26 400 l0 0 l0 0 ZM676 750 l8 56 l-138 0 l-72 -480 l138 0 l44 288 l174 0 l-20 -150 l138 0 l32 286 l-304 0 l0 0 l0 0 ZM604 -67 l110 155 l104 -155 l172 0 l-188 277 l24 40 l0 192 l-144 0 l0 -156 l-250 -353 l172 0 l0 0 l0 0 Z" /><glyph glyph-name="" unicode="&#x6376;" d="M368 -67 l562 0 l0 125 l-214 0 l0 42 l240 0 l0 128 l-56 0 l0 68 l70 0 l0 132 l-70 0 l0 66 l56 0 l0 130 l-240 0 l0 50 l238 6 l0 124 l-606 -14 l0 -124 l232 6 l0 -48 l-240 0 l0 -130 l56 0 l0 -66 l-76 0 l0 -132 l76 0 l0 -68 l-56 0 l0 -128 l240 0 l0 -42 l-212 0 l0 -125 l0 0 l0 0 ZM580 494 l0 -66 l-50 0 l0 66 l50 0 l0 0 l0 0 ZM716 428 l0 66 l50 0 l0 -66 l-50 0 l0 0 l0 0 ZM580 296 l0 -68 l-50 0 l0 68 l50 0 l0 0 l0 0 ZM716 228 l0 68 l50 0 l0 -68 l-50 0 l0 0 l0 0 ZM46 -67 l198 0 l0 309 l44 18 l0 140 l-44 -16 l0 158 l62 0 l0 134 l-62 0 l0 130 l-140 0 l0 -130 l-58 0 l0 -134 l58 0 l0 -202 l-64 -24 l0 -146 l64 24 l0 -128 l-58 0 l0 -133 l0 0 l0 0 Z" /><glyph glyph-name="" unicode="&#x9524;" d="M6 426 l92 0 l0 -40 l-62 0 l0 -132 l62 0 l0 -148 l-46 -28 l0 -149 l250 143 l0 150 l-76 -44 l0 76 l90 0 l0 132 l-90 0 l0 40 l78 0 l0 132 l-126 0 l18 62 l130 0 l0 136 l-94 0 l14 50 l-136 0 l-104 -380 l0 0 l0 0 ZM386 -67 l542 0 l0 125 l-202 0 l0 42 l228 0 l0 128 l-48 0 l0 68 l62 0 l0 128 l-62 0 l0 68 l48 0 l0 132 l-228 0 l0 50 l230 6 l0 124 l-584 -14 l0 -124 l218 6 l0 -48 l-228 0 l0 -132 l44 0 l0 -68 l-62 0 l0 -128 l62 0 l0 -68 l-48 0 l0 -128 l232 0 l0 -42 l-204 0 l0 -125 l0 0 l0 0 ZM726 228 l0 68 l48 0 l0 -68 l-48 0 l0 0 l0 0 ZM590 296 l0 -68 l-50 0 l0 68 l50 0 l0 0 l0 0 ZM590 492 l0 -68 l-50 0 l0 68 l50 0 l0 0 l0 0 ZM726 424 l0 68 l48 0 l0 -68 l-48 0 l0 0 l0 0 Z" /><glyph glyph-name="" unicode="&#x5782;" d="M434 484 l0 -56 l-104 0 l0 56 l104 0 l0 0 l0 0 ZM582 428 l0 56 l112 0 l0 -56 l-112 0 l0 0 l0 0 ZM434 300 l0 -56 l-104 0 l0 56 l104 0 l0 0 l0 0 ZM582 244 l0 56 l112 0 l0 -56 l-112 0 l0 0 l0 0 ZM120 -63 l780 0 l0 129 l-318 0 l0 46 l352 0 l0 132 l-92 0 l0 56 l124 0 l0 128 l-124 0 l0 56 l96 0 l0 132 l-356 0 l0 48 l368 10 l0 130 l-844 -22 l0 -130 l328 8 l0 -44 l-348 0 l0 -132 l96 0 l0 -56 l-124 0 l0 -128 l124 0 l0 -56 l-96 0 l0 -132 l348 0 l0 -46 l-314 0 l0 -129 l0 0 l0 0 Z" /><glyph glyph-name="" unicode="&#x6625;" d="M328 356 l364 0 l36 -36 l-436 0 l36 36 l0 0 l0 0 ZM246 218 l532 0 l0 -36 l-532 0 l0 36 l0 0 l0 0 ZM778 48 l-532 0 l0 36 l532 0 l0 -36 l0 0 l0 0 ZM926 -63 l0 305 l76 0 l-112 114 l90 0 l0 118 l-592 0 l16 34 l540 0 l0 116 l-496 0 l14 32 l498 0 l0 122 l-452 0 l12 28 l-156 0 l-12 -28 l-288 0 l0 -122 l238 0 l-14 -32 l-208 0 l0 -116 l160 0 l-16 -34 l-176 0 l0 -118 l86 0 l-102 -106 l66 0 l0 -313 l828 0 l0 0 l0 0 Z" /><glyph glyph-name="" unicode="&#x693f;" d="M534 522 l-8 -28 l-140 0 l0 -124 l66 0 l-68 -90 l0 62 l-72 72 l0 168 l64 0 l0 128 l-64 0 l0 96 l-124 0 l0 -96 l-130 0 l0 -128 l130 0 l0 -649 l124 0 l0 319 l72 -72 l0 66 l34 0 l0 -313 l520 0 l0 317 l60 0 l-78 120 l50 0 l0 120 l-290 0 l10 32 l246 0 l0 108 l-214 0 l10 32 l224 0 l0 112 l-190 0 l10 32 l-152 0 l-10 -32 l-210 0 l0 -112 l174 0 l-10 -32 l-152 0 l0 -108 l118 0 l0 0 l0 0 ZM560 224 l236 0 l0 -32 l-236 0 l0 32 l0 0 l0 0 ZM796 52 l-236 0 l0 32 l236 0 l0 -32 l0 0 l0 0 ZM618 370 l138 0 l22 -36 l-186 0 l26 36 l0 0 l0 0 ZM146 -13 l20 553 l-108 0 l-22 -553 l110 0 l0 0 l0 0 Z" /><glyph glyph-name="" unicode="&#x9187;" d="M760 258 l-36 -40 l-168 0 l0 -116 l210 0 l0 -56 l-158 0 l0 -113 l306 0 l0 169 l78 0 l0 116 l-90 0 l58 76 l0 80 l-398 0 l0 -116 l198 0 l0 0 l0 0 ZM952 406 l0 224 l-384 0 l0 -224 l384 0 l0 0 l0 0 ZM818 806 l-154 0 l14 -32 l-122 0 l0 -112 l416 0 l0 112 l-140 0 l-14 32 l0 0 l0 0 ZM696 502 l0 32 l128 0 l0 -32 l-128 0 l0 0 l0 0 ZM528 620 l-80 0 l0 38 l80 0 l0 124 l-468 0 l0 -124 l84 0 l0 -38 l-84 0 l0 -687 l468 0 l0 687 l0 0 l0 0 ZM170 490 l30 0 l-20 -236 l74 0 l24 236 l22 0 l0 -220 l118 0 l0 -48 l-248 0 l0 268 l0 0 l0 0 ZM418 64 l-248 0 l0 40 l248 0 l0 -40 l0 0 l0 0 ZM386 490 l32 0 l0 -108 l-32 0 l0 108 l0 0 l0 0 ZM268 620 l0 38 l56 0 l0 -38 l-56 0 l0 0 l0 0 Z" /><glyph glyph-name="" unicode="&#x5507;" d="M238 186 l0 -249 l700 0 l0 249 l-700 0 l0 0 l0 0 ZM964 790 l-896 0 l0 -612 l-38 -245 l140 0 l38 243 l0 250 l78 0 l0 -90 l-46 -6 l0 -118 l362 46 l0 118 l-176 -20 l0 70 l538 0 l0 108 l-756 0 l0 148 l756 0 l0 108 l0 0 l0 0 ZM918 562 l0 94 l-668 0 l0 -94 l668 0 l0 0 l0 0 ZM796 398 l-18 -24 l-138 46 l0 -122 l318 -100 l0 116 l-42 14 l56 70 l-176 0 l0 0 l0 0 ZM790 80 l0 -44 l-404 0 l0 44 l404 0 l0 0 l0 0 Z" /><glyph glyph-name="" unicode="&#x6df3;" d="M714 92 l0 -44 l-324 0 l0 -115 l480 0 l0 159 l116 0 l0 118 l-106 0 l62 62 l0 84 l-590 0 l0 -110 l380 0 l-36 -36 l-386 0 l0 -118 l404 0 l0 0 l0 0 ZM944 386 l0 236 l-592 0 l0 -236 l592 0 l0 0 l0 0 ZM712 806 l-164 0 l16 -34 l-234 0 l0 -118 l640 0 l0 118 l-242 0 l-16 34 l0 0 l0 0 ZM508 488 l0 32 l288 0 l0 -32 l-288 0 l0 0 l0 0 ZM130 266 l-98 -333 l154 0 l104 333 l-160 0 l0 0 l0 0 ZM288 696 l-214 120 l0 -168 l214 -120 l0 168 l0 0 l0 0 ZM268 472 l-214 120 l0 -168 l214 -120 l0 168 l0 0 l0 0 Z" /><glyph glyph-name="" unicode="&#x7eaf;" d="M1004 110 l-140 0 l-12 -44 l-90 0 l0 82 l192 0 l0 410 l-144 0 l0 -274 l-48 0 l0 328 l206 0 l0 136 l-206 0 l0 58 l-144 0 l0 -58 l-216 0 l0 -136 l216 0 l0 -328 l-52 0 l0 274 l-144 0 l0 -410 l196 0 l0 -215 l338 0 l48 177 l0 0 l0 0 ZM212 542 l106 264 l-136 0 l-154 -400 l134 0 l-132 -208 l350 0 l0 136 l-114 0 l156 254 l-146 0 l-30 -46 l-34 0 l0 0 l0 0 ZM52 -55 l328 79 l0 146 l-328 -86 l0 -139 l0 0 l0 0 Z" /></font>
</defs>
</svg>
